Сен-Лоран. Стиль – это я / Saint Laurent (Бертран Бонелло) [2014, драма, биография, HDRip] [iTunes]

 
Автор Сообщение

AleksSin ®

Пол:

Стаж: 6 лет

Сообщений: 218



Награды: 4 (Подробнее)

Mega Seeder 1 (Количество: 1) Mega Seeder 3 (Количество: 1) Mega Seeder 2 (Количество: 1)
Торрент-статистика

Создавать темы 13-Апр-2015 18:52

[Цитировать]

Сен-Лоран. Стиль – это я / Saint Laurent
Страна: Франция, Бельгия
Жанр: драма, биография
Год выпуска: 2014
Продолжительность: 02:30:26
Перевод: Профессиональный (полное дублирование) [iTunes]
Субтитры: нет
Режиссер: Бертран Бонелло
В ролях: Гаспар Ульель, Жереми Ренье, Луи Гаррель, Леа Сейду, Амира Касар, Эмилин Валаде, Хельмут Бергер, Миша Лекот, Валерия Бруни-Тедески, Валери Донзелли
Описание: Конец 1960-х, модный дом молодого Ива Сен-Лорана процветает, а сам дизайнер переживает пьянящий успех и отчаяние. На богемных парижских вечеринках, в Марракеше, в полотнах Уорхолла и книгах Пруста Сен-Лоран ищет и ответы на вопросы, и вдохновение. Но лишь такому утонченному режиссеру, как Бертран Бонелло, удается не только рассказать историю уникального модельера, но и создать портрет эпохи с её диалогами, непомерными развлечениями и умением любой ценой проживать каждый момент жизни красиво.

Качество видео: HDRip (Исх. BDRip 720p)
Формат видео: AVI
Видео кодек: XviD
Аудио кодек:AC3
Видео: 720x384 (1.88:1), 24.000 fps, XviD build 73 ~1552 kbps avg, 0.23 bit/pixel
Аудио#1: 48 kHz, AC3 Dolby Digital, 3/2 (L,C,R,l,r) + LFE ch, ~384.00 kbps avg

MediaInfo

Общее
Полное имя : S:\Фильмы\Сен-Лоран. Стиль – это я. 2014. HDRip. 2.05 (AleksSin).avi
Формат : AVI
Формат/Информация : Audio Video Interleave
Профиль формата : OpenDML
Размер файла : 2,05 Гбайт
Продолжительность : 2 ч. 30 м.
Общий поток : 1948 Кбит/сек
Программа кодирования : VirtualDubMod 1.5.10.3 | www.virtualdub-fr.org || (build 2550/release)
Библиотека кодирования : VirtualDubMod build 2550/release
Видео
Идентификатор : 0
Формат : MPEG-4 Visual
Профиль формата : Advanced Simple@L5
Параметр BVOP формата : 1
Параметр QPel формата : Нет
Параметр GMC формата : Без точки перехода
Параметр матрицы формата : Выборочная
Идентификатор кодека : XVID
Идентификатор кодека/Подсказка : XviD
Продолжительность : 2 ч. 30 м.
Битрейт : 1552 Кбит/сек
Ширина : 720 пикс.
Высота : 384 пикс.
Соотношение сторон : 1,875
Частота кадров : 24,000 кадр/сек
Цветовое пространство : YUV
Подвыборка цветности : 4:2:0
Битовая глубина : 8 бит
Тип развёртки : Прогрессивная
Метод сжатия : С потерями
Бит/(Пиксели*Кадры) : 0.234
Размер потока : 1,63 Гбайт (80%)
Библиотека кодирования : XviD 73
Аудио
Идентификатор : 1
Формат : AC-3
Формат/Информация : Audio Coding 3
Расширение режима : CM (complete main)
Идентификатор кодека : 2000
Продолжительность : 2 ч. 30 м.
Вид битрейта : Постоянный
Битрейт : 384 Кбит/сек
Каналы : 6 каналов
Расположение каналов : Front: L C R, Side: L R, LFE
Частота : 48,0 КГц
Битовая глубина : 16 бит
Метод сжатия : С потерями
Размер потока : 413 Мбайт (20%)
Выравнивание : Разделение по промежуткам
Продолжительность промежутка : 42 мс. (1,00 видеокадр)
Время предзагрузки промежутка : 500 ms

Скриншоты

[Профиль] [ЛС]
Кто просматривает тему:

Показать сообщения:    

Текущее время: Сегодня 22:39

Часовой пояс: GMT



Вы не можете начинать темы
Вы не можете отвечать на сообщения
Вы не можете редактировать свои сообщения
Вы не можете удалять свои сообщения
Вы не можете голосовать в опросах
Вы не можете прикреплять файлы к сообщениям
Вы не можете скачивать файлы