Сен-Лоран. Стиль – это я / Saint Laurent (Бертран Бонелло / Bertrand Bonello) [2014, Франция, Бельгия, Драма, биография, WEB-DLRip] Dub (Line)

 
Автор Сообщение

TorrentFilm ®

Пол:

Стаж: 2 года

Сообщений: 7741



Награды: Нет

Торрент-статистика

Создавать темы 31-Дек-2014 00:01

[Цитировать]

--Сен-Лоран. Стиль – это я / Saint Laurent- Страна: Франция, Бельгия
Жанр: Драма, биография
Год выпуска: 2014
Продолжительность: 02:30:23-Перевод: Профессиональный (дублированный) Line
Cубтитры: нет
Оригинальная аудиодорожка: нет-Режиссер: Бертран Бонелло / Bertrand Bonello-В ролях: Гаспар Ульель, Жереми Ренье, Луи Гаррель, Леа Сейду, Амира Касар, Эмилин Валаде, Хельмут Бергер, Миша Лекот, Валерия Бруни-Тедески, Валери Донзелли
Описание: Конец 1960-х, модный дом молодого Ива Сен-Лорана процветает, а сам дизайнер переживает пьянящий успех и отчаяние. На богемных парижских вечеринках, в Марракеше, в полотнах Уорхолла и книгах Пруста Сен-Лоран ищет и ответы на вопросы, и вдохновение. Но лишь такому утонченному режиссеру, как Бертран Бонелло, удается не только рассказать историю уникального модельера, но и создать портрет эпохи с её диалогами, непомерными развлечениями и умением любой ценой проживать каждый момент жизни красиво.-|Сэмпл|IMDB|КиноПоиск|-Качество видео: WEB-DLRip
Формат видео: AVI
Видео: 720x400 (1.80:1), 24 fps, XviD build 50 ~1682 kbps avg, 0.24 bit/pixel
Аудио: 44.1 kHz, AC3 Dolby Digital, 2/0 (L,R) ch, ~384 kbps

MediaInfo

Общее
Полное имя : F:\BD torrent\mytorrentsup\Saint.Laurent.2014.D.WEB-DLRip.2100Mb.avi
Формат : AVI
Формат/Информация : Audio Video Interleave
Профиль формата : OpenDML
Размер файла : 2,18 Гбайт
Продолжительность : 2 ч. 30 м.
Общий поток : 2073 Кбит/сек
Программа кодирования : VirtualDubMod 1.5.10.2 (build 2540/release)
Библиотека кодирования : VirtualDubMod build 2540/release
Видео
Идентификатор : 0
Формат : MPEG-4 Visual
Профиль формата : Advanced Simple@L5
Параметр BVOP формата : 2
Параметр QPel формата : Нет
Параметр GMC формата : Без точки перехода
Параметр матрицы формата : Default (MPEG)
Идентификатор кодека : XVID
Идентификатор кодека/Подсказка : XviD
Продолжительность : 2 ч. 30 м.
Битрейт : 1677 Кбит/сек
Ширина : 720 пикселей
Высота : 400 пикселей
Соотношение сторон : 16:9
Частота кадров : 24,000 кадра/сек
Цветовое пространство : YUV
Субдискретизация насыщенности : 4:2:0
Битовая глубина : 8 бит
Тип развёртки : Прогрессивная
Метод сжатия : С потерями
Бит/(Пиксели*Кадры) : 0.243
Размер потока : 1,76 Гбайт (81%)
Библиотека кодирования : XviD 1.2.1 (UTC 2008-12-04)
Аудио
Идентификатор : 1
Формат : AC-3
Формат/Информация : Audio Coding 3
Расширение режима : CM (complete main)
Параметр Endianness формата : Big
Идентификатор кодека : 2000
Продолжительность : 2 ч. 30 м.
Вид битрейта : Постоянный
Битрейт : 384 Кбит/сек
Каналы : 2 канала
Расположение каналов : Front: L R
Частота : 44,1 КГц
Битовая глубина : 16 бит
Метод сжатия : С потерями
Размер потока : 413 Мбайт (19%)
Выравнивание : Разделение по промежуткам
Продолжительность промежутка : 42 мс. (1,00 видеокадр)
Время предзагрузки промежутка : 500 мс.

Скриншот c названием фильма

Скриншоты

Ограничения

Зрителям, достигшим 18 лет.

Награды

Каннский кинофестиваль, 2014 год
Победитель (1):
Премия пальмовой собаки - особое упоминание
Номинации (2):
Золотая пальмовая ветвь
Квир-Пальмовая ветвь за освещение ЛГБТ-темы в кино (Бертран Бонелло)
[Профиль] [ЛС]
Кто просматривает тему:

Показать сообщения:    

Текущее время: Сегодня 13:04

Часовой пояс: GMT



Вы не можете начинать темы
Вы не можете отвечать на сообщения
Вы не можете редактировать свои сообщения
Вы не можете удалять свои сообщения
Вы не можете голосовать в опросах
Вы не можете прикреплять файлы к сообщениям
Вы не можете скачивать файлы