Семь / Se7en (1995) BDRip 720p от NNNB | P, A | Remastered

 
Автор Сообщение

Russian Mafia ®

Пол:

Стаж: 1 год 8 месяцев

Сообщений: 4256



Награды: 10 (Подробнее)

Mega Seeder 4 (Количество: 1) Mega Seeder 3 (Количество: 1) Top Releaser 5 (Количество: 1)
Торрент-статистика

Создавать темы 07-Апр-2016 14:14

[Цитировать]

Семь / Se7en
«Он возомнил себя Богом и начал карать...»
Русское название: Семь
Оригинальное название: Se7en
Год выпуска: 1995
Жанр: триллер, драма, криминал, детектив
Выпущено: США
Режиссер: Дэвид Финчер
В ролях: Брэд Питт , Морган Фриман , Гвинет Пэлтроу , Кевин Спейси , Р. Ли Эрми , Ричард Шифф , Марк Бун Джуниор , Ричард Раундтри , Джон К. МакГинли , Рег Э. Кэти , Эндрю Кевин Уокер , Даниэль Сакапа
Перевод: Профессиональный многоголосый, Авторский одноголосый

Сюжет фильма:
Детектив Уильям Сомерсет - ветеран уголовного розыска, мечтающий уйти на пенсию и уехать подальше от города и грешных обитателей. За 7 дней до пенсии на Сомерсета сваливаются две неприятности: молодой напарник Миллс и особо изощренное убийство. Острый ум опытного сыщика сразу определяет, что за этим преступлением, скорее всего, последуют другие. Новости подтверждают его догадку. Поняв, что убийца наказывает свои жертвы за совершенные ими смертные грехи, детектив встает перед выбором: вернуться к работе, либо уйти и передать дело своему менее опытному напарнику?

Качество: BDRip 720p
Формат: AVC (библиотека кодирования x.264)
Контейнер (Расширение): MKV
Видео: 1280x534, 5632 Кбит/сек, 23,976 кадр/сек, 0,344 Бит/[Пиксели*Кадры]
Аудио №1: русский / AC3 / 5.1 / 48 kHz / 640 kbps / 16 bit |MVO, Позитив-Мультимедиа|
Аудио №2: русский / AC3 / 5.1 / 48 kHz / 448 kbps / 16 bit |MVO, FDV / Супербит / Киномания|
Аудио №3: русский / AC3 / 5.1 / 48 kHz / 448 kbps / 16 bit |MVO, CP-Digital|
Аудио №4: русский / AC3 / 5.1 / 48 kHz / 640 kbps / 16 bit |AVO, Ю. Сербин|
Аудио №5: русский / AC3 / 5.1 / 48 kHz / 640 kbps / 16 bit |AVO, С. Рябов|
Аудио №6: русский / AC3 / 5.1 / 48 kHz / 640 kbps / 16 bit |AVO, А. Матвеев (Doctor_Joker)| - ненормативная лексика
Аудио №7: русский / AC3 / 5.1 / 48 kHz / 640 kbps / 16 bit |AVO, А. Гаврилов|
Аудио №8: русский / AC3 / 5.1 / 48 kHz / 640 kbps / 16 bit |AVO, М. Яроцкий (kyberpunk)| - ненормативная лексика
Аудио №9: русский / AC3 / 5.1 / 48 kHz / 384 kbps / 16 bit |AVO, С. Визгунов|
Аудио №10: английский / AC3 / 5.1 / 48 kHz / 640 kbps / 16 bit
Субтитры: русские (Forced Позитив-Мультимедиа), русские (Позитив-Мультимедиа), русские (Супербит), русские (CP-Digital), английские, английские (SDH)
Навигация по главам(Чаптеры): есть (подписанные)
Продолжительность: 02:06:54Автор рипа: Сообщество:

MediaInfo

Format : Matroska
Format version : Version 2
File size : 10.1 GiB
Duration : 2h 6mn
Overall bit rate : 11.4 Mbps
Movie name : Se7en.(1995).BDRip.720p.[denis100].Remastered
Encoded date : UTC 2016-04-07 13:25:40
Writing application : mkvmerge v5.8.0 ('No Sleep / Pillow') built on Sep 2 2012 15:37:04
Writing library : libebml v1.2.3 + libmatroska v1.3.0
Video
ID : 1
Format : AVC
Format/Info : Advanced Video Codec
Format profile : High@L4.1
Format settings, CABAC : Yes
Format settings, ReFrames : 11 frames
Codec ID : V_MPEG4/ISO/AVC
Duration : 2h 6mn
Bit rate : 5 632 Kbps
Width : 1 280 pixels
Height : 534 pixels
Display aspect ratio : 2.40:1
Frame rate : 23.976 fps
Color space : YUV
Chroma subsampling : 4:2:0
Bit depth : 8 bits
Scan type : Progressive
Bits/(Pixel*Frame) : 0.344
Stream size : 4.79 GiB (47%)
Title : Se7en.(1995).BDRip.720p.[denis100].Remastered
Writing library : x264 core 148 r2665 a01e339
Encoding settings : cabac=1 / ref=11 / deblock=1:-3:-3 / analyse=0x3:0x133 / me=umh / subme=11 / psy=1 / psy_rd=1.00:0.10 / mixed_ref=1 / me_range=48 / chroma_me=1 / trellis=2 / 8x8dct=1 / cqm=0 / deadzone=21,11 / fast_pskip=0 / chroma_qp_offset=-3 / threads=6 / lookahead_threads=1 / sliced_threads=0 / nr=0 / decimate=1 / interlaced=0 / bluray_compat=0 / constrained_intra=0 / bframes=12 / b_pyramid=2 / b_adapt=2 / b_bias=0 / direct=3 / weightb=1 / open_gop=0 / weightp=2 / keyint=240 / keyint_min=23 / scenecut=40 / intra_refresh=0 / rc=2pass / mbtree=0 / bitrate=5632 / ratetol=1.0 / qcomp=0.60 / qpmin=0 / qpmax=69 / qpstep=4 / cplxblur=20.0 / qblur=0.5 / ip_ratio=1.40 / pb_ratio=1.30 / aq=1:0.90
Language : English
Default : Yes
Forced : No
Audio #1
ID : 2
Format : AC-3
Format/Info : Audio Coding 3
Mode extension : CM (complete main)
Codec ID : A_AC3
Duration : 2h 6mn
Bit rate mode : Constant
Bit rate : 640 Kbps
Channel(s) : 6 channels
Channel positions : Front: L C R, Side: L R, LFE
Sampling rate : 48.0 KHz
Bit depth : 16 bits
Compression mode : Lossy
Stream size : 581 MiB (6%)
Title : MVO, Позитив-Мультимедиа
Language : Russian
Default : Yes
Forced : No
Audio #2
ID : 3
Format : AC-3
Format/Info : Audio Coding 3
Mode extension : CM (complete main)
Codec ID : A_AC3
Duration : 2h 6mn
Bit rate mode : Constant
Bit rate : 448 Kbps
Channel(s) : 6 channels
Channel positions : Front: L C R, Side: L R, LFE
Sampling rate : 48.0 KHz
Bit depth : 16 bits
Compression mode : Lossy
Stream size : 407 MiB (4%)
Title : MVO, FDV / Супербит / Киномания
Language : Russian
Default : No
Forced : No
Audio #3
ID : 4
Format : AC-3
Format/Info : Audio Coding 3
Mode extension : CM (complete main)
Codec ID : A_AC3
Duration : 2h 6mn
Bit rate mode : Constant
Bit rate : 448 Kbps
Channel(s) : 6 channels
Channel positions : Front: L C R, Side: L R, LFE
Sampling rate : 48.0 KHz
Bit depth : 16 bits
Compression mode : Lossy
Stream size : 407 MiB (4%)
Title : MVO, CP-Digital
Language : Russian
Default : No
Forced : No
Audio #4
ID : 5
Format : AC-3
Format/Info : Audio Coding 3
Mode extension : CM (complete main)
Codec ID : A_AC3
Duration : 2h 6mn
Bit rate mode : Constant
Bit rate : 640 Kbps
Channel(s) : 6 channels
Channel positions : Front: L C R, Side: L R, LFE
Sampling rate : 48.0 KHz
Bit depth : 16 bits
Compression mode : Lossy
Stream size : 581 MiB (6%)
Title : AVO, Ю.Сербин
Language : Russian
Default : No
Forced : No
Audio #5
ID : 6
Format : AC-3
Format/Info : Audio Coding 3
Mode extension : CM (complete main)
Codec ID : A_AC3
Duration : 2h 6mn
Bit rate mode : Constant
Bit rate : 640 Kbps
Channel(s) : 6 channels
Channel positions : Front: L C R, Side: L R, LFE
Sampling rate : 48.0 KHz
Bit depth : 16 bits
Compression mode : Lossy
Stream size : 581 MiB (6%)
Title : AVO, С. Рябов
Language : Russian
Default : No
Forced : No
Audio #6
ID : 7
Format : AC-3
Format/Info : Audio Coding 3
Mode extension : CM (complete main)
Codec ID : A_AC3
Duration : 2h 6mn
Bit rate mode : Constant
Bit rate : 640 Kbps
Channel(s) : 6 channels
Channel positions : Front: L C R, Side: L R, LFE
Sampling rate : 48.0 KHz
Bit depth : 16 bits
Compression mode : Lossy
Stream size : 581 MiB (6%)
Title : AVO, А. Матвеев (Doctor_Joker)
Language : Russian
Default : No
Forced : No
Audio #7
ID : 8
Format : AC-3
Format/Info : Audio Coding 3
Mode extension : CM (complete main)
Codec ID : A_AC3
Duration : 2h 6mn
Bit rate mode : Constant
Bit rate : 640 Kbps
Channel(s) : 6 channels
Channel positions : Front: L C R, Side: L R, LFE
Sampling rate : 48.0 KHz
Bit depth : 16 bits
Compression mode : Lossy
Stream size : 581 MiB (6%)
Title : AVO, А.Гаврилов
Language : Russian
Default : No
Forced : No
Audio #8
ID : 9
Format : AC-3
Format/Info : Audio Coding 3
Mode extension : CM (complete main)
Codec ID : A_AC3
Duration : 2h 6mn
Bit rate mode : Constant
Bit rate : 640 Kbps
Channel(s) : 6 channels
Channel positions : Front: L C R, Side: L R, LFE
Sampling rate : 48.0 KHz
Bit depth : 16 bits
Compression mode : Lossy
Stream size : 581 MiB (6%)
Title : AVO, М.Яроцкий (kyberpunk)
Language : Russian
Default : No
Forced : No
Audio #9
ID : 10
Format : AC-3
Format/Info : Audio Coding 3
Mode extension : CM (complete main)
Codec ID : A_AC3
Duration : 2h 6mn
Bit rate mode : Constant
Bit rate : 384 Kbps
Channel(s) : 6 channels
Channel positions : Front: L C R, Side: L R, LFE
Sampling rate : 48.0 KHz
Bit depth : 16 bits
Compression mode : Lossy
Stream size : 349 MiB (3%)
Title : AVO, С. Визгунов
Language : Russian
Default : No
Forced : No
Audio #10
ID : 11
Format : AC-3
Format/Info : Audio Coding 3
Mode extension : CM (complete main)
Codec ID : A_AC3
Duration : 2h 6mn
Bit rate mode : Constant
Bit rate : 640 Kbps
Channel(s) : 6 channels
Channel positions : Front: L C R, Side: L R, LFE
Sampling rate : 48.0 KHz
Bit depth : 16 bits
Compression mode : Lossy
Stream size : 581 MiB (6%)
Language : English
Default : No
Forced : No
Text #1
ID : 12
Format : UTF-8
Codec ID : S_TEXT/UTF8
Codec ID/Info : UTF-8 Plain Text
Title : Forced Позитив-Мультимедиа
Language : Russian
Default : Yes
Forced : No
Text #2
ID : 13
Format : UTF-8
Codec ID : S_TEXT/UTF8
Codec ID/Info : UTF-8 Plain Text
Title : Позитив-Мультимедиа
Language : Russian
Default : No
Forced : No
Text #3
ID : 14
Format : UTF-8
Codec ID : S_TEXT/UTF8
Codec ID/Info : UTF-8 Plain Text
Title : Супербит
Language : Russian
Default : No
Forced : No
Text #4
ID : 15
Format : UTF-8
Codec ID : S_TEXT/UTF8
Codec ID/Info : UTF-8 Plain Text
Title : CP-Digital
Language : Russian
Default : No
Forced : No
Text #5
ID : 16
Format : UTF-8
Codec ID : S_TEXT/UTF8
Codec ID/Info : UTF-8 Plain Text
Language : English
Default : No
Forced : No
Text #6
ID : 17
Format : UTF-8
Codec ID : S_TEXT/UTF8
Codec ID/Info : UTF-8 Plain Text
Title : SDH
Language : English
Default : No
Forced : No
Menu
00:00:00.000 : en:The Last Seven Days
00:04:11.251 : en:Main Titles
00:06:19.253 : en:Monday
00:07:33.744 : en:Gluttony
00:14:47.511 : en:Somerset Wants Out
00:17:07.443 : en:Tuesday
00:18:11.465 : en:Greed
00:21:42.175 : en:Seven Deadly Sins
00:24:26.756 : en:Hitting The Books
00:29:28.516 : en:Wednesday
00:30:27.033 : en:Close Quarters
00:33:13.157 : en:A Late Supper
00:37:28.454 : en:Forced Attrition
00:42:23.541 : en:Mrs. Gould
00:43:32.860 : en:Help Me
00:47:43.235 : en:Thursday
00:50:18.390 : en:Sloth
00:54:24.803 : en:Feeding Off His Emotions
00:57:28.194 : en:Friday
01:01:45.159 : en:Methodical, Exacting and Patient
01:04:19.605 : en:Who's Reading What
01:07:26.584 : en:John Doe
01:14:45.022 : en:A Reason to Knock
01:20:34.037 : en:"I Admire You"
01:24:07.250 : en:Saturday
01:25:04.140 : en:Lust
01:28:15.498 : en:Apathy is Easy
01:33:05.162 : en:Sunday; Pride
01:33:58.799 : en:Surrender
01:36:46.967 : en:The Deal
01:39:04.480 : en:Ready to Move
01:40:53.797 : en:"You Won't Miss a Thing"
01:44:05.030 : en:The Chosen One
01:50:53.855 : en:"It's Close"
01:53:06.196 : en:The Package
01:56:56.634 : en:Envy and Wrath
02:02:00.313 : en:End Credits

x264

x264 [info]: frame I:1323 Avg QP:13.24 size:117726
x264 [info]: frame P:37412 Avg QP:15.90 size: 51473
x264 [info]: frame B:143840 Avg QP:18.25 size: 22783

Скриншоты

[Профиль] [ЛС]
Показать сообщения:    

Текущее время: Сегодня 20:10

Часовой пояс: GMT



Вы не можете начинать темы
Вы не можете отвечать на сообщения
Вы не можете редактировать свои сообщения
Вы не можете удалять свои сообщения
Вы не можете голосовать в опросах
Вы не можете прикреплять файлы к сообщениям
Вы не можете скачивать файлы