Семь / Se7en / Seven (1995) BDRip 720р от NNNB | 60 fps | P, A

 
Автор Сообщение

sergej644 ®

Пол:

Стаж: 4 года 11 месяцев

Сообщений: 6043

Откуда: Soviet Union



Награды: Нет

Торрент-статистика

Создавать темы 12-Дек-2014 19:44

[Цитировать]

- Информация о фильме
Русское название: Семь
Оригинальное название: Se7en / Seven
Год выхода: 1995
Жанр: триллер, драма, детектив
Режиссер: Дэвид Финчер
Выпущено: США
Продолжительность: 02:06:54
Перевод: Профессиональный (Многоголосый закадровый), Авторский (Ю. Сербин) (А. Гаврилов) (С. Визгунов) (kyberpunk, М. Яроцкий)
В ролях: Брэд Питт, Морган Фриман, Гвинет Пэлтроу, Кевин Спейси, Р. Ли Эрми, Эндрю Кевин Уокер, Дэниэл Зацапа, Джон Кассини, Боб Макк, Питер Кромби, Рег Э. Кэти-Сюжет фильма
Детектив Уильям Сомерсет — ветеран уголовного сыска, мечтающий уйти на пенсию и уехать подальше от города и грешных обитателей. За 7 дней до пенсии на Сомерсета сваливаются две неприятности: молодой напарник Миллс и особо изощренное убийство. Острый ум опытного сыщика сразу определяет, что за этим преступлением, скорее всего, последуют другие. Новости подтверждают его догадку. Поняв, что убийца наказывает свои жертвы за совершенные ими смертные грехи, детектив встает перед выбором: вернуться к работе, либо уйти и передать дело своему менее опытному напарнику?-Файл
Качество: BDRip 720p (исходник Blu-ray Disc Remux)
Видео: 1280x534, 5366 Кбит/сек, 59.940 кадр/сек, AVC, x264, High@L4.1, 2.40:1, 0.131 Бит/[Пиксели*Кадры]
Аудио 1: AC-3, 448 Кбит/сек, 6 канала(ов), 48,0 КГц - Многоголосый закадровый, Позитив / Русский
Аудио 2: AC-3, 448 Кбит/сек, 6 канала(ов), 48,0 КГц - Одноголосый закадровый, Ю. Сербин / Русский
Аудио 3: AC-3, 128 Кбит/сек, 2 канала(ов), 48,0 КГц - Одноголосый закадровый, А. Гаврилов / Русский
Аудио 4: AC-3, 128 Кбит/сек, 2 канала(ов), 48,0 КГц - Одноголосый закадровый, С. Визгунов / Русский
Аудио 5: AC-3, 128 Кбит/сек, 2 канала(ов), 48,0 КГц - Многоголосый закадровый, СР Digital / Русский
Аудио 6: AC-3, 448 Кбит/сек, 6 канала(ов), 48,0 КГц - Одноголосый закадровый, М. Яроцкий / Русский
Аудио 7: AC-3, 640 Кбит/сек, 6 канала(ов), 48,0 КГц - Оригинал / Английский
Субтитры: Русские | Полные, Английские | Полные
Форсированные субтитры: Русские
Чаптеры (Главы): Есть-
СэмплАвтор Рипа: -

Скриншоты

MediaInfo

Format                                   : Matroska
Format version                           : Version 2
File size                                : 6.85 GiB
Duration                                 : 2h 6mn
Overall bit rate                         : 7 725 Kbps
Movie name                               : Семь.(1995).BDRip.720p.[envy].[60fps]
Encoded date                             : UTC 2014-12-05 21:05:33
Writing application                      : mkvmerge v5.8.0 ('No Sleep / Pillow') built on Sep  2 2012 15:37:04
Writing library                          : libebml v1.2.3 + libmatroska v1.3.0
Video
ID                                       : 1
Format                                   : AVC
Format/Info                              : Advanced Video Codec
Format profile                           : High@L4.1
Format settings, CABAC                   : Yes
Format settings, ReFrames                : 9 frames
Codec ID                                 : V_MPEG4/ISO/AVC
Duration                                 : 2h 6mn
Bit rate                                 : 5 366 Kbps
Width                                    : 1 280 pixels
Height                                   : 534 pixels
Display aspect ratio                     : 2.40:1
Frame rate mode                          : Constant
Frame rate                               : 59.880 fps
Original frame rate                      : 59.940 fps
Color space                              : YUV
Chroma subsampling                       : 4:2:0
Bit depth                                : 8 bits
Scan type                                : Progressive
Bits/(Pixel*Frame)                       : 0.131
Stream size                              : 4.61 GiB (67%)
Title                                    : Семь.(1995).BDRip.720p.[envy].[60fps]
Writing library                          : x264 core 130 r2273 b3065e6
Encoding settings                        : cabac=1 / ref=9 / deblock=1:0:0 / analyse=0x3:0x133 / me=umh / subme=10 / psy=1 / psy_rd=1.00:0.00 / mixed_ref=1 / me_range=28 / chroma_me=1 / trellis=2 / 8x8dct=1 / cqm=0 / deadzone=21,11 / fast_pskip=0 / chroma_qp_offset=-2 / threads=12 / lookahead_threads=1 / sliced_threads=0 / nr=0 / decimate=1 / interlaced=0 / bluray_compat=0 / constrained_intra=0 / bframes=5 / b_pyramid=2 / b_adapt=2 / b_bias=0 / direct=3 / weightb=1 / open_gop=0 / weightp=2 / keyint=250 / keyint_min=25 / scenecut=40 / intra_refresh=0 / rc=2pass / mbtree=0 / bitrate=5366 / ratetol=1.0 / qcomp=0.60 / qpmin=0 / qpmax=69 / qpstep=4 / cplxblur=20.0 / qblur=0.5 / ip_ratio=1.40 / pb_ratio=1.30 / aq=2:1.00
Language                                 : English
Default                                  : Yes
Forced                                   : No
Audio #1
ID                                       : 2
Format                                   : AC-3
Format/Info                              : Audio Coding 3
Mode extension                           : CM (complete main)
Format settings, Endianness              : Big
Codec ID                                 : A_AC3
Duration                                 : 2h 6mn
Bit rate mode                            : Constant
Bit rate                                 : 448 Kbps
Channel(s)                               : 6 channels
Channel positions                        : Front: L C R, Side: L R, LFE
Sampling rate                            : 48.0 KHz
Bit depth                                : 16 bits
Compression mode                         : Lossy
Stream size                              : 407 MiB (6%)
Title                                    : MVO Pozitiv
Language                                 : Russian
Default                                  : Yes
Forced                                   : No
Audio #2
ID                                       : 3
Format                                   : AC-3
Format/Info                              : Audio Coding 3
Mode extension                           : CM (complete main)
Format settings, Endianness              : Big
Codec ID                                 : A_AC3
Duration                                 : 2h 6mn
Bit rate mode                            : Constant
Bit rate                                 : 448 Kbps
Channel(s)                               : 6 channels
Channel positions                        : Front: L C R, Side: L R, LFE
Sampling rate                            : 48.0 KHz
Bit depth                                : 16 bits
Compression mode                         : Lossy
Stream size                              : 407 MiB (6%)
Title                                    : Serbin
Language                                 : Russian
Default                                  : No
Forced                                   : No
Audio #3
ID                                       : 4
Format                                   : AC-3
Format/Info                              : Audio Coding 3
Mode extension                           : CM (complete main)
Format settings, Endianness              : Big
Codec ID                                 : A_AC3
Duration                                 : 2h 6mn
Bit rate mode                            : Constant
Bit rate                                 : 128 Kbps
Channel(s)                               : 1 channel
Channel positions                        : Front: C
Sampling rate                            : 48.0 KHz
Bit depth                                : 16 bits
Compression mode                         : Lossy
Stream size                              : 116 MiB (2%)
Title                                    : Gavrilov
Language                                 : Russian
Default                                  : No
Forced                                   : No
Audio #4
ID                                       : 5
Format                                   : AC-3
Format/Info                              : Audio Coding 3
Mode extension                           : CM (complete main)
Format settings, Endianness              : Big
Codec ID                                 : A_AC3
Duration                                 : 2h 6mn
Bit rate mode                            : Constant
Bit rate                                 : 128 Kbps
Channel(s)                               : 1 channel
Channel positions                        : Front: C
Sampling rate                            : 48.0 KHz
Bit depth                                : 16 bits
Compression mode                         : Lossy
Stream size                              : 116 MiB (2%)
Title                                    : Vizgunov
Language                                 : Russian
Default                                  : No
Forced                                   : No
Audio #5
ID                                       : 6
Format                                   : AC-3
Format/Info                              : Audio Coding 3
Mode extension                           : CM (complete main)
Format settings, Endianness              : Big
Codec ID                                 : A_AC3
Duration                                 : 2h 6mn
Bit rate mode                            : Constant
Bit rate                                 : 128 Kbps
Channel(s)                               : 1 channel
Channel positions                        : Front: C
Sampling rate                            : 48.0 KHz
Bit depth                                : 16 bits
Compression mode                         : Lossy
Stream size                              : 116 MiB (2%)
Title                                    : MVO СР Digital
Language                                 : Russian
Default                                  : No
Forced                                   : No
Audio #6
ID                                       : 7
Format                                   : AC-3
Format/Info                              : Audio Coding 3
Mode extension                           : CM (complete main)
Format settings, Endianness              : Big
Codec ID                                 : A_AC3
Duration                                 : 2h 6mn
Bit rate mode                            : Constant
Bit rate                                 : 448 Kbps
Channel(s)                               : 6 channels
Channel positions                        : Front: L C R, Side: L R, LFE
Sampling rate                            : 48.0 KHz
Bit depth                                : 16 bits
Compression mode                         : Lossy
Stream size                              : 407 MiB (6%)
Title                                    : Jarockij (kyberpunk)
Language                                 : Russian
Default                                  : No
Forced                                   : No
Audio #7
ID                                       : 8
Format                                   : AC-3
Format/Info                              : Audio Coding 3
Mode extension                           : CM (complete main)
Format settings, Endianness              : Big
Codec ID                                 : A_AC3
Duration                                 : 2h 6mn
Bit rate mode                            : Constant
Bit rate                                 : 640 Kbps
Channel(s)                               : 6 channels
Channel positions                        : Front: L C R, Side: L R, LFE
Sampling rate                            : 48.0 KHz
Bit depth                                : 16 bits
Compression mode                         : Lossy
Stream size                              : 581 MiB (8%)
Title                                    : Eng
Language                                 : English
Default                                  : No
Forced                                   : No
Text #1
ID                                       : 9
Format                                   : UTF-8
Codec ID                                 : S_TEXT/UTF8
Codec ID/Info                            : UTF-8 Plain Text
Title                                    : forced
Language                                 : Russian
Default                                  : Yes
Forced                                   : Yes
Text #2
ID                                       : 10
Format                                   : UTF-8
Codec ID                                 : S_TEXT/UTF8
Codec ID/Info                            : UTF-8 Plain Text
Title                                    : full
Language                                 : Russian
Default                                  : No
Forced                                   : No
Text #3
ID                                       : 11
Format                                   : UTF-8
Codec ID                                 : S_TEXT/UTF8
Codec ID/Info                            : UTF-8 Plain Text
Title                                    : full
Language                                 : English
Default                                  : No
Forced                                   : No
Menu
00:00:00.000                             : :Chapter 01
00:04:11.251                             : :Chapter 02
00:06:19.253                             : :Chapter 03
00:07:33.744                             : :Chapter 04
00:14:47.511                             : :Chapter 05
00:17:07.443                             : :Chapter 06
00:18:11.465                             : :Chapter 07
00:21:42.175                             : :Chapter 08
00:24:26.756                             : :Chapter 09
00:29:28.516                             : :Chapter 10
00:30:27.033                             : :Chapter 11
00:33:13.157                             : :Chapter 12
00:37:28.454                             : :Chapter 13
00:42:23.541                             : :Chapter 14
00:43:32.860                             : :Chapter 15
00:47:43.235                             : :Chapter 16
00:50:18.390                             : :Chapter 17
00:54:24.803                             : :Chapter 18
00:57:28.194                             : :Chapter 19
01:01:45.159                             : :Chapter 20
01:04:19.605                             : :Chapter 21
01:07:26.584                             : :Chapter 22
01:14:45.022                             : :Chapter 23
01:20:34.037                             : :Chapter 24
01:24:07.250                             : :Chapter 25
01:25:04.140                             : :Chapter 26
01:28:15.498                             : :Chapter 27
01:33:05.162                             : :Chapter 28
01:33:58.799                             : :Chapter 29
01:36:46.967                             : :Chapter 30
01:39:04.480                             : :Chapter 31
01:40:53.797                             : :Chapter 32
01:44:05.030                             : :Chapter 33
01:50:53.855                             : :Chapter 34
01:53:06.196                             : :Chapter 35
01:56:56.634                             : :Chapter 36
02:02:00.313                             : :Chapter 37
- --
[Профиль] [ЛС]
Показать сообщения:    

Текущее время: Сегодня 06:16

Часовой пояс: GMT



Вы не можете начинать темы
Вы не можете отвечать на сообщения
Вы не можете редактировать свои сообщения
Вы не можете удалять свои сообщения
Вы не можете голосовать в опросах
Вы не можете прикреплять файлы к сообщениям
Вы не можете скачивать файлы