Семь дней / Se-beun De-i-jeu (2007) BDRip 720p | L2

 
Автор Сообщение

sergej644 ®

Пол:

Стаж: 4 года 11 месяцев

Сообщений: 6046

Откуда: Soviet Union



Награды: Нет

Торрент-статистика

Создавать темы 18-Янв-2015 02:27

[Цитировать]

Информация о фильме
Название: Семь дней
Оригинальное название: Se-beun De-i-jeu
Год выпуска: 2007
Жанр: Триллер, криминал
Режиссер: Шин-юн Вон
В ролях: Ким Юн Джин, Ким Ми Сук, Пак Хи Сун, Му-Сёнг Чои, Чан Хан Сон, Ян Джин У, Чон Тон Хван, О Кван Рок, Ок Чжи Ён
О фильме:Ю Чжи-Ён успешный адвокат и мать-одиночка. Вместе со своей семилетней дочерью она участвует в школьном спортивном соревновании и даже приходит к финишу первой. Но после соревнований Чжи-Ён нигде не может найти свою дочь, поддерживавшую ее во время забега. Спустя некоторое время, в доме Чжи-Ён, раздается телефонный звонок. В котором неизвестный сообщает, что похитил ее дочь. И ставит Чжи-Ён, возможно перед самым сложным выбором в ее жизни. Чтобы снова увидеть свою дочь живой, главной героине необходимо представлять в апелляционном суде, приговоренного к смертной казни, насильника и убийцу Чон Чхоль-Чжин`а, которого по словам загадочного похитителя осудили несправедливо...

Страна: Корея Южная
Студия: Prime Entertainment
Продолжительность: 02:06:00
Перевод: Любительский двухголосый
Файл
Кодек: x264
Качество: BDRip 720p
Видео: MPEG-4 AVC, 5800 Кбит/с, 1280x552, 23.976 кадр/с
Аудио #1: Русский (AC3, 2 ch, 192 Кбит/с) / Любительский двухголосый (den904, DeadSno)
Аудио #2: Корейский (DTS, 6 ch, 1509 Кбит/с)
Семпл

MI

x264 [info]: frame I:1233 Avg QP:18.79 size: 76811
x264 [info]: frame P:50369 Avg QP:20.29 size: 41537
x264 [info]: frame B:129664 Avg QP:21.25 size: 25389
===========================================================
Format : Matroska
Format version : Version 2
File size : 6.60 GiB
Duration : 2h 6mn
Overall bit rate : 7 501 Kbps
Encoded date : UTC 2015-01-17 18:44:12
Writing application : mkvmerge v5.5.0 ('Healer') built on Apr 6 2012 21:43:24
Writing library : libebml v1.2.3 + libmatroska v1.3.0
Video
ID : 1
Format : AVC
Format/Info : Advanced Video Codec
Format profile : High@L4.1
Format settings, CABAC : Yes
Format settings, ReFrames : 11 frames
Codec ID : V_MPEG4/ISO/AVC
Duration : 2h 6mn
Bit rate : 5 800 Kbps
Width : 1 280 pixels
Height : 552 pixels
Display aspect ratio : 2.35:1
Frame rate mode : Constant
Frame rate : 23.976 fps
Color space : YUV
Chroma subsampling : 4:2:0
Bit depth : 8 bits
Scan type : Progressive
Bits/(Pixel*Frame) : 0.342
Stream size : 4.97 GiB (75%)
Writing library : x264 core 140 r2377+40 929f149 tMod [8-bit@4:2:0 X86_64]
Encoding settings : cabac=1 / ref=11 / deblock=1:-3:-3 / analyse=0x3:0x133 / me=umh / subme=11 / psy=1 / fade_compensate=0.00 / psy_rd=1.00:0.00 / mixed_ref=1 / me_range=48 / chroma_me=1 / trellis=2 / 8x8dct=1 / cqm=0 / deadzone=21,11 / fast_pskip=0 / chroma_qp_offset=-2 / threads=12 / lookahead_threads=1 / sliced_threads=0 / nr=0 / decimate=0 / interlaced=0 / bluray_compat=0 / constrained_intra=0 / fgo=0 / bframes=8 / b_pyramid=2 / b_adapt=2 / b_bias=0 / direct=3 / weightb=1 / open_gop=0 / weightp=2 / keyint=360 / keyint_min=2 / scenecut=40 / intra_refresh=0 / rc_lookahead=240 / rc=2pass / mbtree=1 / bitrate=5800 / ratetol=1.0 / qcomp=0.70 / qpmin=0:0:0 / qpmax=69:69:69 / qpstep=4 / cplxblur=20.0 / qblur=0.5 / vbv_maxrate=50000 / vbv_bufsize=30000 / nal_hrd=none / filler=0 / ip_ratio=1.10 / aq=1:0.80 / aq-sensitivity=10.00 / aq-factor=1.00:1.00:1.00 / aq2=0 / aq3=0
Language : Korean
Default : Yes
Forced : No
Audio #1
ID : 2
Format : AC-3
Format/Info : Audio Coding 3
Mode extension : CM (complete main)
Format settings, Endianness : Big
Codec ID : A_AC3
Duration : 2h 6mn
Bit rate mode : Constant
Bit rate : 192 Kbps
Channel count : 2 channels
Channel positions : Front: L R
Sampling rate : 48.0 KHz
Bit depth : 16 bits
Compression mode : Lossy
Stream size : 173 MiB (3%)
Title : Russian
Language : Russian
Default : Yes
Forced : No
Audio #2
ID : 3
Format : DTS
Format/Info : Digital Theater Systems
Mode : 16
Format settings, Endianness : Big
Codec ID : A_DTS
Duration : 2h 6mn
Bit rate mode : Constant
Bit rate : 1 509 Kbps
Channel count : 6 channels
Channel positions : Front: L C R, Side: L R, LFE
Sampling rate : 48.0 KHz
Bit depth : 16 bits
Compression mode : Lossy
Stream size : 1.33 GiB (20%)
Title : Korean
Language : Korean
Default : No
Forced : No
Menu
00:00:00.000 : en:00:00:00.000
00:20:01.200 : en:00:20:01.200
00:40:02.400 : en:00:40:02.400
01:00:04.226 : en:01:00:04.226
01:20:05.426 : en:01:20:05.426
01:40:06.000 : en:01:40:06.000

Скриншоты


--
[Профиль] [ЛС]
Кто просматривает тему:

Показать сообщения:    

Текущее время: Сегодня 14:56

Часовой пояс: GMT



Вы не можете начинать темы
Вы не можете отвечать на сообщения
Вы не можете редактировать свои сообщения
Вы не можете удалять свои сообщения
Вы не можете голосовать в опросах
Вы не можете прикреплять файлы к сообщениям
Вы не можете скачивать файлы