Семь веснушек / Sieben Sommersprossen (Герман Цшохе / Herrmann Zschoche) [1978, ГДР, романтическая мелодрама, BDRip 720p] VO (Кошкин) + Sub Rus + Original Ger

 
Автор Сообщение

reversefile ®

Пол:

Стаж: 4 года 5 месяцев

Сообщений: 842

Откуда: ReverseFile.org



Награды: Нет

Торрент-статистика

Создавать темы 25-Июл-2014 01:06

[Цитировать]

Семь веснушек / Sieben Sommersprossen
Страна: ГДР
Студия: DEFA
Жанр: романтическая мелодрама
Год выпуска: 1978
Продолжительность: 01:15:53
Перевод: Одноголосый закадровый Кошкин
Cубтитры: русские
Оригинальная аудиодорожка: немецкий
Режиссер: Герман Цшохе / Herrmann Zschoche
В ролях: Карен Шрётер, Харольд Ратман, Криста Лёзер, Эвелин Опочински, Рене Рудольф, Ян Берешка, Барбара Диттус, Хильмар Бауманн, Карола Спиндлер, Сабине Шмидт, Карола Браунбок, Михаэль Бётчер и др.
Описание: Четырнадцатилетняя Каролина и пятнадцатилетний Робби, которые когда-то жили в одном доме, спустя недолгое время снова встречаются в летнем лагере. Между ними постепенно возникает чувство первой любви. Но этому есть множество препятствий. Распорядок дня в лагере твёрдо регламентирован. Директор очень строга и интересуется, в первую очередь, физическим воспитанием. Чувства, – особенно взаимные чувства между подростками, – она вообще не признает. Единственный, кто пытается понимать ребят - один из молодых воспитателей, господин Бенедикт. Он организует постановку спектакля "Ромео и Джульетта" для ближайшего сельхозкооператива. Директор изначально выступает против постановки, считая, что её подопечные не способны передать чувства влюблённых...
Среди самих подростков тоже не всё в порядке. Так, девочка Марлен, которая сама положила глаз на Робби, старается помешать его отношениям с Каролиной. После того, как Марлен подбросила сопернице пачку противозачаточных таблеток и сама доложила о них руководству лагеря, Каролину должны отослать домой. Лишь Бенедикт не согласен с мнением, что такие "аморальные" вещи не следует допускать. Теперь и постановка пьесы может не состояться. В результате Каролина убегает из лагеря...

Доп. информация:


спасибо iFPD,edus67,фениксклабу
Сэмпл: http://multi-up.com/986445
Тип релиза: BDRip 720p
Контейнер: MKV
Видео: H.264/AVC, 1280x720, 16:9, 25.00fps, 5738Kbps
Аудио: Русский, DD 2.0, 192Kbps, 48 kHz
Аудио 2: Немецкий, DD 5.1, 448Kbps, 48 kHz
Формат субтитров: softsub (SRT)

MediaInfo

Complete name : Sieben.Sommersprossen.1978.720p.BluRay.x264.rus.ger.mkv
Format : Matroska
Format version : Version 4 / Version 2
File size : 3.38 GiB
Duration : 1h 15mn
Overall bit rate : 6 378 Kbps
Encoded date : UTC 2014-07-15 06:31:17
Writing application : mkvmerge v7.0.0 ('Where We Going') 32bit built on Jun 9 2014 15:08:34
Writing library : libebml v1.3.0 + libmatroska v1.4.1
DURATION : 01:15:52.640000000
NUMBER_OF_FRAMES : 142270
NUMBER_OF_BYTES : 109263360
_STATISTICS_WRITING_APP : mkvmerge v7.0.0 ('Where We Going') 32bit built on Jun 9 2014 15:08:34
_STATISTICS_WRITING_DATE_UTC : 2014-07-15 06:31:17
_STATISTICS_TAGS : BPS DURATION NUMBER_OF_FRAMES NUMBER_OF_BYTES
Video
ID : 1
Format : AVC
Format/Info : Advanced Video Codec
Format profile : High@L4.1
Format settings, CABAC : Yes
Format settings, ReFrames : 5 frames
Codec ID : V_MPEG4/ISO/AVC
Duration : 1h 15mn
Bit rate : 5 738 Kbps
Width : 1 280 pixels
Height : 720 pixels
Display aspect ratio : 16:9
Frame rate mode : Constant
Frame rate : 25.000 fps
Color space : YUV
Chroma subsampling : 4:2:0
Bit depth : 8 bits
Scan type : Progressive
Bits/(Pixel*Frame) : 0.249
Stream size : 2.97 GiB (88%)
Title : Sieben Sommersprossen (1978)
Writing library : x264 core 135 r2345 f0c1c53
Encoding settings : cabac=1 / ref=5 / deblock=1:0:0 / analyse=0x3:0x113 / me=umh / subme=7 / psy=1 / psy_rd=1.00:0.15 / mixed_ref=1 / me_range=16 / chroma_me=1 / trellis=1 / 8x8dct=1 / cqm=0 / deadzone=21,11 / fast_pskip=0 / chroma_qp_offset=-3 / threads=12 / lookahead_threads=2 / sliced_threads=0 / nr=0 / decimate=1 / interlaced=0 / bluray_compat=0 / constrained_intra=0 / bframes=3 / b_pyramid=2 / b_adapt=1 / b_bias=0 / direct=3 / weightb=1 / open_gop=0 / weightp=2 / keyint=250 / keyint_min=25 / scenecut=40 / intra_refresh=0 / rc_lookahead=40 / rc=2pass / mbtree=1 / bitrate=5738 / ratetol=1.0 / qcomp=0.60 / qpmin=0 / qpmax=69 / qpstep=4 / cplxblur=20.0 / qblur=0.5 / ip_ratio=1.40 / aq=1:1.00
Default : Yes
Forced : No
Audio #1
ID : 2
Format : AC-3
Format/Info : Audio Coding 3
Mode extension : CM (complete main)
Format settings, Endianness : Big
Codec ID : A_AC3
Duration : 1h 15mn
Bit rate mode : Constant
Bit rate : 192 Kbps
Channel(s) : 2 channels
Channel positions : Front: L R
Sampling rate : 48.0 KHz
Bit depth : 16 bits
Compression mode : Lossy
Stream size : 104 MiB (3%)
Title : VO (Кошкин)
Language : Russian
Default : Yes
Forced : No
Audio #2
ID : 3
Format : AC-3
Format/Info : Audio Coding 3
Mode extension : CM (complete main)
Format settings, Endianness : Big
Codec ID : A_AC3
Duration : 1h 15mn
Bit rate mode : Constant
Bit rate : 448 Kbps
Channel(s) : 6 channels
Channel positions : Front: L C R, Side: L R, LFE
Sampling rate : 48.0 KHz
Bit depth : 16 bits
Compression mode : Lossy
Stream size : 243 MiB (7%)
Title : AC3
Language : German
Default : No
Forced : No
Text
ID : 4
Format : UTF-8
Codec ID : S_TEXT/UTF8
Codec ID/Info : UTF-8 Plain Text
Language : Russian
Default : No
Forced : No
[Профиль] [ЛС]
Кто просматривает тему:

Показать сообщения:    

Текущее время: Сегодня 04:13

Часовой пояс: GMT



Вы не можете начинать темы
Вы не можете отвечать на сообщения
Вы не можете редактировать свои сообщения
Вы не можете удалять свои сообщения
Вы не можете голосовать в опросах
Вы не можете прикреплять файлы к сообщениям
Вы не можете скачивать файлы