Семейный заговор / Family Plot (1976) BDRip 1080p | D

 
Автор Сообщение

BOSS ®

Пол:

Стаж: 3 года 2 месяца

Сообщений: 8576

Откуда: ODESSA



Награды: 22 (Подробнее)

Top Releaser 4 (Количество: 1) Top Keeper 4 (Количество: 1) Mega Releaser 1 (Количество: 1)
Торрент-статистика

Создавать темы 02-Авг-2017 13:46

[Цитировать]

Информация о фильме
Название: Семейный заговор
Оригинальное название: Family Plot
Год выхода: 1976
Жанр: Триллер, комедия, криминал
Режиссер: Альфред Хичкок
В ролях: Карен Блэк (Fran), Брюс Дерн (George), Барбара Харрис (Blanche), Уильям Дивэйн (Adamson), Эд Лотер (Maloney), Кэтлин Несбит (Julia Rainbird), Кэтрин Хелмонд (Mrs. Maloney), Уоррен Дж. Кеммерлинг (Grandison), Эдит Этуотер (Mrs. Clay), Уильям Принц (Bishop), Николас Коласанто (Constantine), Мардж Редмонд (Mrs. Hannagan)
О фильме
«Семейный заговор» — остросюжетное, остроумное и вообще весьма острое блюдо для гурманов и поклонников старика Хича, где непревзойденный кинокулинар в последний раз изысканно смешал поджог, похищение, ограбление и… убийство.

Страна: США
Продолжительность: 02:00:04
Перевод: Дублированный
Файл
Кодек: MPEG-4 AVC
Качество: BDRip 1080p
Видео: ~10500 Кбит/с, 1864x1032, 23.976 кадр/с
Aудио 1: AC3 Русский 2.0 / 48 kHz /640 kbps / 16-bit (Дублированный)
Aудио 2: AC3 Английский 2.0 / 48 kHz / 640 kbps / 16-bit (Оригинал)
Субтитры: нет

M/I

Общее
Уникальный идентификатор : 85364850599445072973180669665323137954 (0x4038AC151642AACB54EEA478805A3BA2)
Полное имя : C:Xvid4PSPСемейный заговор.1976.BDRip.1080p.mkv
Формат : Matroska
Версия формата : Version 2
Размер файла : 9,88 Гбайт
Продолжительность : 2 ч. 0 м.
Общий поток : 11,8 Мбит/сек
Программа кодирования : XviD4PSP 6.0 / 53.6.0
Библиотека кодирования : XviD4PSP 6.0 / 53.6.0
Видео
Идентификатор : 1
Формат : AVC
Формат/Информация : Advanced Video Codec
Профиль формата : High@L4.1
Параметр CABAC формата : Да
Параметр ReFrames формата : 8 кадров
Идентификатор кодека : V_MPEG4/ISO/AVC
Продолжительность : 2 ч. 0 м.
Битрейт : 10,5 Мбит/сек
Ширина : 1864 пикселя
Высота : 1032 пикселя
Соотношение сторон : 16:9
Режим частоты кадров : Постоянный
Частота кадров : 23,976 кадра/сек
Цветовое пространство : YUV
Субдискретизация насыщенности : 4:2:0
Битовая глубина : 8 бит
Тип развёртки : Прогрессивная
Бит/(Пиксели*Кадры) : 0.228
Размер потока : 8,61 Гбайт (87%)
Библиотека кодирования : x264 core 116 r2019M 9cc407d
Настройки программы : cabac=1 / ref=9 / deblock=1:0:0 / analyse=0x3:0x133 / me=umh / subme=9 / psy=1 / psy_rd=1.00:0.20 / mixed_ref=1 / me_range=32 / chroma_me=1 / trellis=1 / 8x8dct=1 / cqm=0 / deadzone=21,11 / fast_pskip=1 / chroma_qp_offset=-3 / threads=8 / sliced_threads=0 / nr=0 / decimate=1 / interlaced=0 / bluray_compat=0 / constrained_intra=0 / bframes=6 / b_pyramid=1 / b_adapt=2 / b_bias=6 / direct=3 / weightb=1 / open_gop=0 / weightp=2 / keyint=230 / keyint_min=23 / scenecut=40 / intra_refresh=0 / rc_lookahead=40 / rc=2pass / mbtree=1 / bitrate=10500 / ratetol=1.0 / qcomp=0.60 / qpmin=10 / qpmax=51 / qpstep=4 / cplxblur=20.0 / qblur=0.5 / ip_ratio=1.40 / aq=1:1.00
Default : Да
Forced : Нет
Аудио #1
Идентификатор : 2
Формат : AC-3
Формат/Информация : Audio Coding 3
Расширение режима : CM (complete main)
Параметр Endianness формата : Big
Идентификатор кодека : A_AC3
Продолжительность : 2 ч. 0 м.
Вид битрейта : Постоянный
Битрейт : 640 Кбит/сек
Каналы : 2 канала
Расположение каналов : Front: L R
Частота : 48,0 КГц
Битовая глубина : 16 бит
Метод сжатия : С потерями
Размер потока : 550 Мбайт (5%)
Язык : Russian
Default : Да
Forced : Нет
Аудио #2
Идентификатор : 3
Формат : AC-3
Формат/Информация : Audio Coding 3
Расширение режима : CM (complete main)
Параметр Endianness формата : Big
Идентификатор кодека : A_AC3
Продолжительность : 2 ч. 0 м.
Вид битрейта : Постоянный
Битрейт : 640 Кбит/сек
Каналы : 2 канала
Расположение каналов : Front: L R
Частота : 48,0 КГц
Битовая глубина : 16 бит
Метод сжатия : С потерями
Размер потока : 550 Мбайт (5%)
Язык : English
Default : Да
Forced : Нет

Скриншоты

[Профиль] [ЛС]
Кто просматривает тему:

Форум Тема Автор Размер
3D Мультфильмы 7-ой гном в 3Д / Der 7bte Zwerg / The 7th Dwarf 3D (Борис Альинович / Boris Aljinovic) [2014, Мультфильм, Приключения, Семейный, BDremux, 1080p] BD3D BOSS 25.43 GB
Зарубежные Acтepикc и Oбeликc в Бpитaнии в 3Д / Аstеriх еt Оbеliх: Аu sеrviсе dе Sа Маjеstе 3D (Лоран Тирар / Laurent Tirard) [2012, комедия, приключения, семейный, BDrip, 1080p] OverUnder / Верти... TorrentFilm 18.68 GB
Фильмы (HD Rips | 720p, 1080p) Boждь рaзнoкoжих (Егор Анашкин) [2012, Россия, комедия, семейный, Blu-ray disc 1080i] Original Rus TorrentFilm 15.03 GB
Зарубежные Boлшeбнuк cтpaны Oз в 3Д / Тhе Wizаrd оf Оz 3D (Виктор Флеминг / Victor Fleming) [1939, Фэнтези, Приключения, Мюзикл, Семейный, BDrip, 1080p] OverUnder / Вертикальная стереопара TorrentFilm 24.37 GB
3D Мультфильмы Cмypфuкu 2 в 3Д / Тhе Sмurfs 2 3D (Раджа Госнелл / Raja Gosnell) [2013, Мультфильм, Фэнтези, Комедия, Семейный, BDrip, 1080p] OverUnder / Вертикальная стереопара reversefile 15.98 GB
Фильмы (DVD 5/9) Cтрaнa xoрoших дeтoчеk (Oльrа Kaптyр) [2013, Россия, детский, приключения, семейный, DVD5] R5 Original Rus TorrentFilm 3.64 GB
Зарубежные Maлeфиceнтa в 3Д / Маlеfісеnt 3D (Poбepт Стpoмбepг / Rоbеrt Strоmbеrg) [2014, фэнтези, семейный, мелодрама, приключения, Blu-ray Remux 1080p] BD3D TorrentFilm 33.35 GB
Зарубежные Mалeфиcентa в 3Д / Мalеficеnt 3D (Pобeрт Cтрoмбеpг / Rоbеrt Strоmbеrg) [2014, Фэнтези, Семейный, Мелодрама, Приключения, BDrip-AVC] Half OverUnder / Вертикальная анаморфная стереопара TorrentFilm 5.8 GB
Показать сообщения:    

Текущее время: Сегодня 18:44

Часовой пояс: GMT



Вы не можете начинать темы
Вы не можете отвечать на сообщения
Вы не можете редактировать свои сообщения
Вы не можете удалять свои сообщения
Вы не можете голосовать в опросах
Вы не можете прикреплять файлы к сообщениям
Вы не можете скачивать файлы