Семейный альбом [01-14 из 14] (2015) WEB-DL 1080p

 
Автор Сообщение

достали все ®

Пол:

Стаж: 2 года 3 месяца

Сообщений: 6778



Награды: 12 (Подробнее)

Mega Seeder 3 (Количество: 1) Top Releaser 3 (Количество: 1) Mega Seeder 2 (Количество: 1)
Торрент-статистика

Создавать темы 06-Мар-2016 05:49

[Цитировать]

Информация о фильме
Название: Семейный альбом
Год выхода: 2015
Жанр: Мелодрама, история, семейная сага
Режиссер: Леонид Прудовский
В ролях: Игорь Скляр, Татьяна Черкасова, Даниил Страхов, Екатерина Олькина, Иван Шибанов, Ксения Суркова, Эра Зиганшина, Борис Романов, Евгений Сидихин, Зоя Буряк, Владимир Фридман, Владимир Матвеев, Виталий Олечкин, Вячеслав Аркунов, Роман Фёдоров, Валерия Шкирандо, Елена Лопаткина, Никита Барсуков, Ксения Алексеева, Мария Рочева
О фильме:
Пятидесятые годы 20 века. СССР. Время, когда наши бабушки и дедушки были молодыми, когда молодой была страна и граждане ее верили, что еще нынешнее поколение будет жить при коммунизме. То, что сейчас кажется пафосом, было настоящей жизнью и настоящей любовью – к своей родине, к профессии, к людям, к стране. Большая семья академика Колокольцева живет на даче под Ленинградом: сам академик с женой, Колокольцев-младший - тоже блестящий ученый-физик, его жена и две дочери, Ольга и Катя. В 1955 году проект Колокольцева-младшего неожиданно закрывают - в тот самый момент, когда ученый стоит на пороге большого открытия. Вскоре после этого Колокольцев погибает при таинственных обстоятельствах. И семья начинает разваливаться на части - измены, страхи, старые обиды и новые увлечения словно разводят героев в разные стороны из старого и родного дома. Все они так или иначе оказываются перед сложнейшим выбором: что важнее - личный успех, большая наука, карьера, родина - или семья, то единственное место, где человеку по-настоящему хорошо, где его любят и принимают таким, как есть. И все герои делают свой выбор - иногда роковой...

Страна: Россия
Студия: Кинокомпания «Щука»
Продолжительность: 14 х ~ 00:50:00
Язык: Русский
Файл
Кодек: MPEG-4 AVC
Качество: WEB-DL 1080p
Видео: MPEG-4 AVC, ~ 5000 Кбит/с, 1920x1080
Звук: AC3, 2 ch, 192 Кбит/с
Субтитры: Русские

Инфо-файл

General
Complete name : Semejnij.albom.2015.WEB-DL.(1080p).ExKinoRaySemejnij.albom.(01.seriya).2015.WEB-DL.(1080p).ExKinoRay.mkv
Format : Matroska
Format version : Version 2
File size : 1.90 GiB
Duration : 54mn 17s
Overall bit rate : 5 001 Kbps
Encoded date : UTC 2016-03-06 00:40:40
Writing application : mkvmerge v5.8.0 ('No Sleep / Pillow') built on Sep 2 2012 15:37:04
Writing library : libebml v1.2.3 + libmatroska v1.3.0
Video
ID : 1
Format : AVC
Format/Info : Advanced Video Codec
Format profile : High@L4.1
Format settings, CABAC : Yes
Format settings, ReFrames : 4 frames
Codec ID : V_MPEG4/ISO/AVC
Duration : 54mn 17s
Bit rate : 4 710 Kbps
Width : 1 920 pixels
Height : 1 080 pixels
Display aspect ratio : 16:9
Frame rate mode : Constant
Frame rate : 25.000 fps
Color space : YUV
Chroma subsampling : 4:2:0
Bit depth : 8 bits
Scan type : Progressive
Bits/(Pixel*Frame) : 0.091
Stream size : 1.79 GiB (94%)
Language : Russian
Default : Yes
Forced : Yes
Audio
ID : 2
Format : AC-3
Format/Info : Audio Coding 3
Mode extension : CM (complete main)
Format settings, Endianness : Big
Codec ID : A_AC3
Duration : 54mn 17s
Bit rate mode : Constant
Bit rate : 192 Kbps
Channel(s) : 2 channels
Channel positions : Front: L R
Sampling rate : 48.0 KHz
Bit depth : 16 bits
Compression mode : Lossy
Stream size : 74.6 MiB (4%)
Language : Russian
Default : Yes
Forced : Yes
Text
ID : 3
Format : UTF-8
Codec ID : S_TEXT/UTF8
Codec ID/Info : UTF-8 Plain Text
Language : Russian
Default : No
Forced : No

Скриншоты


[Профиль] [ЛС]
Кто просматривает тему:

Форум Тема Автор Размер
Фильмы 2017 года Безумные семейки / Mad Families (2017) WEBRip | L BOSS 1.37 GB
R.G.TorrentFilm Video Красавица и чудовище / Beauty and the Beast (Билл Кондон / Bill Condon) [2017, США, мюзикл, фэнтези, мелодрама, семейный, BDRip 720p] Dub (iTunes) + Sub (rus, eng) + Original Eng AleksSin 5.07 GB
3D Мультфильмы Красная Шапка против зла в 3Д / Hoodwinked Too! Hood VS. Evil in 3D (Майкл Д’Иса-Хоган / Michael D'Isa-Hogan) [2011, США, мультфильм, семейный, BDrip-AVC] Half OverUnder / Ве... BOSS 3.99 GB
Зарубежные сериалы Лемони Сникет: 33 несчастья / A Series of Unfortunate Events (Сезон 1, Серия 1-8 из 8) ( Дэниэл Хэндлер, Эмили Фокс) [2017 , Драма, приключения, семейный, WEB-DLRip 720p] [ AlexFilm , LostFilm ,... Враг Нароода 17.29 GB
Зарубежные сериалы Лемони Сникет: 33 несчастья / A Series of Unfortunate Events (Сезон 1, Серия 1-8 из 8) ( Дэниэл Хэндлер, Эмили Фокс) [2017 , Драма, приключения, семейный,WEB-DLRip 1080p] [ AlexFilm , LostFilm ,... Враг Нароода 34.09 GB
3D Мультфильмы Оз: Возвращение в Изумрудный Город в 3Д / Legends of Oz: Dorothy's Return 3D (Уилл Финн, Дэн Ст. Пьер / Will Finn, Dan St. Pierre) [2013, Мультфильм, Мюзикл, Семейный, BDrip-AVC] Half OverUnder... BOSS 7.41 GB
3D Мультфильмы Риф в 3Д / The Reef 2: High Tide 3D (Марк А.З. Диппе, Тадонг Пак / Mark A.Z. Dippe, Taedong Park) [2012, Мультфильм, Мюзикл, Семейный, BDrip-AVC] Half OverUnder / Вертикальная анаморфная стереопара BOSS 6.12 GB
Фильмы 2017 года Семейное ограбление / Family Heist / Mes trésors (2017) BDRip | Лицензия BOSS 1.46 GB
Показать сообщения:    

Текущее время: Сегодня 22:54

Часовой пояс: GMT



Вы не можете начинать темы
Вы не можете отвечать на сообщения
Вы не можете редактировать свои сообщения
Вы не можете удалять свои сообщения
Вы не можете голосовать в опросах
Вы не можете прикреплять файлы к сообщениям
Вы не можете скачивать файлы