Семейный альбом [01-14 из 14] (2015) WEB-DL 1080p

 
Автор Сообщение

достали все ®

Пол:

Стаж: 1 год 8 месяцев

Сообщений: 6545



Награды: 12 (Подробнее)

Mega Seeder 2 (Количество: 1) Mega Releaser 1 (Количество: 1) Top Releaser 4 (Количество: 1)
Торрент-статистика

Создавать темы 06-Мар-2016 05:49

[Цитировать]

Информация о фильме
Название: Семейный альбом
Год выхода: 2015
Жанр: Мелодрама, история, семейная сага
Режиссер: Леонид Прудовский
В ролях: Игорь Скляр, Татьяна Черкасова, Даниил Страхов, Екатерина Олькина, Иван Шибанов, Ксения Суркова, Эра Зиганшина, Борис Романов, Евгений Сидихин, Зоя Буряк, Владимир Фридман, Владимир Матвеев, Виталий Олечкин, Вячеслав Аркунов, Роман Фёдоров, Валерия Шкирандо, Елена Лопаткина, Никита Барсуков, Ксения Алексеева, Мария Рочева
О фильме:
Пятидесятые годы 20 века. СССР. Время, когда наши бабушки и дедушки были молодыми, когда молодой была страна и граждане ее верили, что еще нынешнее поколение будет жить при коммунизме. То, что сейчас кажется пафосом, было настоящей жизнью и настоящей любовью – к своей родине, к профессии, к людям, к стране. Большая семья академика Колокольцева живет на даче под Ленинградом: сам академик с женой, Колокольцев-младший - тоже блестящий ученый-физик, его жена и две дочери, Ольга и Катя. В 1955 году проект Колокольцева-младшего неожиданно закрывают - в тот самый момент, когда ученый стоит на пороге большого открытия. Вскоре после этого Колокольцев погибает при таинственных обстоятельствах. И семья начинает разваливаться на части - измены, страхи, старые обиды и новые увлечения словно разводят героев в разные стороны из старого и родного дома. Все они так или иначе оказываются перед сложнейшим выбором: что важнее - личный успех, большая наука, карьера, родина - или семья, то единственное место, где человеку по-настоящему хорошо, где его любят и принимают таким, как есть. И все герои делают свой выбор - иногда роковой...

Страна: Россия
Студия: Кинокомпания «Щука»
Продолжительность: 14 х ~ 00:50:00
Язык: Русский
Файл
Кодек: MPEG-4 AVC
Качество: WEB-DL 1080p
Видео: MPEG-4 AVC, ~ 5000 Кбит/с, 1920x1080
Звук: AC3, 2 ch, 192 Кбит/с
Субтитры: Русские

Инфо-файл

General
Complete name : Semejnij.albom.2015.WEB-DL.(1080p).ExKinoRaySemejnij.albom.(01.seriya).2015.WEB-DL.(1080p).ExKinoRay.mkv
Format : Matroska
Format version : Version 2
File size : 1.90 GiB
Duration : 54mn 17s
Overall bit rate : 5 001 Kbps
Encoded date : UTC 2016-03-06 00:40:40
Writing application : mkvmerge v5.8.0 ('No Sleep / Pillow') built on Sep 2 2012 15:37:04
Writing library : libebml v1.2.3 + libmatroska v1.3.0
Video
ID : 1
Format : AVC
Format/Info : Advanced Video Codec
Format profile : High@L4.1
Format settings, CABAC : Yes
Format settings, ReFrames : 4 frames
Codec ID : V_MPEG4/ISO/AVC
Duration : 54mn 17s
Bit rate : 4 710 Kbps
Width : 1 920 pixels
Height : 1 080 pixels
Display aspect ratio : 16:9
Frame rate mode : Constant
Frame rate : 25.000 fps
Color space : YUV
Chroma subsampling : 4:2:0
Bit depth : 8 bits
Scan type : Progressive
Bits/(Pixel*Frame) : 0.091
Stream size : 1.79 GiB (94%)
Language : Russian
Default : Yes
Forced : Yes
Audio
ID : 2
Format : AC-3
Format/Info : Audio Coding 3
Mode extension : CM (complete main)
Format settings, Endianness : Big
Codec ID : A_AC3
Duration : 54mn 17s
Bit rate mode : Constant
Bit rate : 192 Kbps
Channel(s) : 2 channels
Channel positions : Front: L R
Sampling rate : 48.0 KHz
Bit depth : 16 bits
Compression mode : Lossy
Stream size : 74.6 MiB (4%)
Language : Russian
Default : Yes
Forced : Yes
Text
ID : 3
Format : UTF-8
Codec ID : S_TEXT/UTF8
Codec ID/Info : UTF-8 Plain Text
Language : Russian
Default : No
Forced : No

Скриншоты


[Профиль] [ЛС]
Кто просматривает тему:

Форум Тема Автор Размер
3D Мультфильмы 7-ой гном в 3Д / Der 7bte Zwerg / The 7th Dwarf 3D (Борис Альинович / Boris Aljinovic) [2014, Мультфильм, Приключения, Семейный, BDremux, 1080p] BD3D BOSS 25.43 GB
Зарубежные Acтepикc и Oбeликc в Бpитaнии в 3Д / Аstеriх еt Оbеliх: Аu sеrviсе dе Sа Маjеstе 3D (Лоран Тирар / Laurent Tirard) [2012, комедия, приключения, семейный, BDrip, 1080p] OverUnder / Верти... TorrentFilm 18.68 GB
Фильмы (HD Rips | 720p, 1080p) Boждь рaзнoкoжих (Егор Анашкин) [2012, Россия, комедия, семейный, Blu-ray disc 1080i] Original Rus TorrentFilm 15.03 GB
Зарубежные Boлшeбнuк cтpaны Oз в 3Д / Тhе Wizаrd оf Оz 3D (Виктор Флеминг / Victor Fleming) [1939, Фэнтези, Приключения, Мюзикл, Семейный, BDrip, 1080p] OverUnder / Вертикальная стереопара TorrentFilm 24.37 GB
3D Мультфильмы Cмypфuкu 2 в 3Д / Тhе Sмurfs 2 3D (Раджа Госнелл / Raja Gosnell) [2013, Мультфильм, Фэнтези, Комедия, Семейный, BDrip, 1080p] OverUnder / Вертикальная стереопара reversefile 15.98 GB
Фильмы (DVD 5/9) Cтрaнa xoрoших дeтoчеk (Oльrа Kaптyр) [2013, Россия, детский, приключения, семейный, DVD5] R5 Original Rus TorrentFilm 3.64 GB
Зарубежные Maлeфиceнтa в 3Д / Маlеfісеnt 3D (Poбepт Стpoмбepг / Rоbеrt Strоmbеrg) [2014, фэнтези, семейный, мелодрама, приключения, Blu-ray Remux 1080p] BD3D TorrentFilm 33.35 GB
Зарубежные Mалeфиcентa в 3Д / Мalеficеnt 3D (Pобeрт Cтрoмбеpг / Rоbеrt Strоmbеrg) [2014, Фэнтези, Семейный, Мелодрама, Приключения, BDrip-AVC] Half OverUnder / Вертикальная анаморфная стереопара TorrentFilm 5.8 GB
Показать сообщения:    

Текущее время: Сегодня 12:32

Часовой пояс: GMT



Вы не можете начинать темы
Вы не можете отвечать на сообщения
Вы не можете редактировать свои сообщения
Вы не можете удалять свои сообщения
Вы не можете голосовать в опросах
Вы не можете прикреплять файлы к сообщениям
Вы не можете скачивать файлы