Семейная свадьба / Our Family Wedding (Рик Фамуйива / Rick Famuyiwa) [2010, США, мелодрама, комедия, HDTVRip] [Open Matte] MVO (1 канал)

 
Автор Сообщение

TorrentFilm ®

Пол:

Стаж: 2 года

Сообщений: 7741



Награды: Нет

Торрент-статистика

Создавать темы 17-Сен-2015 00:09

[Цитировать]

Семейная свадьба / Our Family Wedding / Open Matte
Страна: США
Жанр: мелодрама, комедия
Год выпуска: 2010
Продолжительность: 01:35:40
Перевод: Профессиональный (многоголосый закадровый) 1 канал
Cубтитры: нет
Оригинальная аудиодорожка: нет
Режиссер: Рик Фамуйива / Rick Famuyiwa
В ролях: Форест Уитакер, Америка Феррера, Карлос Менсиа, Реджина Кинг, Лэнс Гросс, Диана-Мария Рива, Люпе Онтиверос, Анджела Н. Джонсон, Чарльз К. Мерфи, Вивек Шах, Шаннин Соссамон, Тонита Кастро, Анна Мария Хорсфорд, Уоррен Сапп, Шондрелла Эйвери, Стерлинг Ардри, Скайлан Брукс, Кастуло Герра, Джозеф Менсиа, Мэтт Саутер, Пол Коста, Хоакин Пастор, Джеймс Лежер, Алехандро Патино, Жаклин Мацарелла, Джо Вассалло, Элла Джойс, Сай Ричардсон, Ноэль Гульеми, Чарльз Гришам, Кэролайн Аарон, Мими Майклс, Карли Аверс, Хейли Норман, Гордон Джеймс, Джина Родригез, Гэбриел Альварез, Деле, Брэд Поттс, Катрина Бэйкер, Майкл Кларк, Тэй Диггз, Леон Гантер, Либертад Грин, Синтия Пачеко, Морис Уэбстер, Трой Уильямс
Описание: Предсвадебная неделя молодой пары оказалась хлопотной, особенно если учесть, что их отцы пытаются в это время положить конец давней вражде.
Доп. информация: Рип с канала Первый HD. Из видеоряда удален логотип канала, остались послерекламные вставки с названием фильма. HDTV имеет иное наполнение кадра чем BD http://screenshotcomparison.com/comparison/143055
Сэмпл: http://multi-up.com/1066697
Качество видео: HDTVRip
Формат видео: AVI
Видео: MPEG4, XviD, 720x400 (16:9), 25.000 fps, 1 847 Kbps (0.257 bit/pixel)
Аудио: AC-3, 48.0 KHz, 2 ch, 192 Kbps, CBR

MediaInfo

Общее
Полное имя : K:\Семейная свадьба.avi
Формат : AVI
Формат/Информация : Audio Video Interleave
Размер файла : 1,37 Гбайт
Продолжительность : 1 ч. 35 м.
Общий поток : 2049 Кбит/сек
Название фильма : Семейная свадьба / Our Family Wedding (2010)
Программа кодирования : VirtualDubMod 1.5.10.2 (build 2540/release)
Библиотека кодирования : VirtualDubMod build 2540/release
Авторское право : miha2154
Видео
Идентификатор : 0
Формат : MPEG-4 Visual
Профиль формата : Advanced Simple@L5
Параметр BVOP формата : 1
Параметр QPel формата : Нет
Параметр GMC формата : Без точки перехода
Параметр матрицы формата : Выборочная
Идентификатор кодека : XVID
Идентификатор кодека/Подсказка : XviD
Продолжительность : 1 ч. 35 м.
Битрейт : 1847 Кбит/сек
Ширина : 720 пикселей
Высота : 400 пикселей
Соотношение сторон : 16:9
Частота кадров : 25,000 кадров/сек
Цветовое пространство : YUV
Субдискретизация насыщенности : 4:2:0
Битовая глубина : 8 бит
Тип развёртки : Прогрессивная
Метод сжатия : С потерями
Бит/(Пиксели*Кадры) : 0.257
Размер потока : 1,23 Гбайт (90%)
Библиотека кодирования : XviD 65
Аудио
Идентификатор : 1
Формат : AC-3
Формат/Информация : Audio Coding 3
Расширение режима : CM (complete main)
Параметр Endianness формата : Big
Идентификатор кодека : 2000
Продолжительность : 1 ч. 35 м.
Вид битрейта : Постоянный
Битрейт : 192 Кбит/сек
Каналы : 2 канала
Расположение каналов : Front: L R
Частота : 48,0 КГц
Метод сжатия : С потерями
Размер потока : 131 Мбайт (9%)
Выравнивание : Разделение по промежуткам
Продолжительность промежутка : 40 мс. (1,00 видеокадр)
Время предзагрузки промежутка : 500 мс.
Заголовок : Профессиональный (многоголосый закадровый) 1 канал

Скриншоты


[Профиль] [ЛС]

Создавать темы 12-Июн-2016 07:53 (спустя 8 месяцев 25 дней)

Топик был перенесен из форума Фильмы 2011 года в форум Фильмы 2010 года
Russian Mafia
 
Кто просматривает тему:

Форум Тема Автор Размер
3D Мультфильмы 7-ой гном в 3Д / Der 7bte Zwerg / The 7th Dwarf 3D (Борис Альинович / Boris Aljinovic) [2014, Мультфильм, Приключения, Семейный, BDremux, 1080p] BD3D BOSS 25.43 GB
Зарубежные Acтepикc и Oбeликc в Бpитaнии в 3Д / Аstеriх еt Оbеliх: Аu sеrviсе dе Sа Маjеstе 3D (Лоран Тирар / Laurent Tirard) [2012, комедия, приключения, семейный, BDrip, 1080p] OverUnder / Верти... TorrentFilm 18.68 GB
Фильмы (HD Rips | 720p, 1080p) Boждь рaзнoкoжих (Егор Анашкин) [2012, Россия, комедия, семейный, Blu-ray disc 1080i] Original Rus TorrentFilm 15.03 GB
Зарубежные Boлшeбнuк cтpaны Oз в 3Д / Тhе Wizаrd оf Оz 3D (Виктор Флеминг / Victor Fleming) [1939, Фэнтези, Приключения, Мюзикл, Семейный, BDrip, 1080p] OverUnder / Вертикальная стереопара TorrentFilm 24.37 GB
3D Мультфильмы Cмypфuкu 2 в 3Д / Тhе Sмurfs 2 3D (Раджа Госнелл / Raja Gosnell) [2013, Мультфильм, Фэнтези, Комедия, Семейный, BDrip, 1080p] OverUnder / Вертикальная стереопара reversefile 15.98 GB
Фильмы (DVD 5/9) Cтрaнa xoрoших дeтoчеk (Oльrа Kaптyр) [2013, Россия, детский, приключения, семейный, DVD5] R5 Original Rus TorrentFilm 3.64 GB
Зарубежные Maлeфиceнтa в 3Д / Маlеfісеnt 3D (Poбepт Стpoмбepг / Rоbеrt Strоmbеrg) [2014, фэнтези, семейный, мелодрама, приключения, Blu-ray Remux 1080p] BD3D TorrentFilm 33.35 GB
Зарубежные Mалeфиcентa в 3Д / Мalеficеnt 3D (Pобeрт Cтрoмбеpг / Rоbеrt Strоmbеrg) [2014, Фэнтези, Семейный, Мелодрама, Приключения, BDrip-AVC] Half OverUnder / Вертикальная анаморфная стереопара TorrentFilm 5.8 GB
Показать сообщения:    

Текущее время: Сегодня 20:42

Часовой пояс: GMT



Вы не можете начинать темы
Вы не можете отвечать на сообщения
Вы не можете редактировать свои сообщения
Вы не можете удалять свои сообщения
Вы не можете голосовать в опросах
Вы не можете прикреплять файлы к сообщениям
Вы не можете скачивать файлы