Семейка Крудс / The Croods (2013) BDRip 1080p | D

 
Автор Сообщение

BOSS ®

Пол:

Стаж: 3 года

Сообщений: 7633

Откуда: ODESSA



Награды: 22 (Подробнее)

Mega Releaser 4 (Количество: 1) Top Seeder 2 (Количество: 1) Top Seeder 5 (Количество: 1)
Торрент-статистика

Создавать темы 09-Окт-2017 18:07

[Цитировать]

Информация о фильме
Название: Семейка Крудс
Оригинальное название: The Croods
Год выхода: 2013
Жанр: мультфильм, фэнтези, комедия, приключения, семейный
Режиссер: Кирк де Микко, Крис Сандерс
В ролях: Николас Кейдж, Эмма Стоун, Райан Рейнольдс, Кэтрин Кинер, Клорис Личмен, Кларк Дьюк, Крис Сандерс
О фильме: Землетрясение уничтожило дом доисторической семьи, и теперь Крудсам придётся искать другое пристанище. А вокруг новый и опасный мир! Им на помощь приходит молодой кочевник Малой, передовые взгляды которого наталкиваются на консервативность главы семьи Груга. Но только вместе они смогут выжить и достичь своей цели…

Выпущено: DreamWorks Animation
Продолжительность: 01:38:37
Перевод: Дублированный (лицензия) + Украинский + Оригинал
Файл
Кодек: x264
Качество: BDRip (источник: Blu-ray Disc)
Видео: 1920x816 (2,35:1), 23.976 fps, 6930 kbps
Аудио #1: AC-3, 6 ch, 640 kbps (Rus)
Аудио #2: AC-3, 6 ch, 448 kbps (Ukr)
Аудио #3: AC-3, 6 ch, 640 kbps (Eng)
Субтитры: Русские, Украинские, Английские
Скачать: сэмпл
Скриншоты

MI

Общее
Уникальный идентификатор : 253825265939561041918773956455986774262 (0xBEF4F7D0E9A9411A95B3F3E1BFEE40F6)
Полное имя : The.Croods.2013.BDRip.1080p.Rus.Ukr.Eng.mkv
Формат : Matroska
Версия формата : Version 2
Размер файла : 5,97 Гбайт
Продолжительность : 1 ч. 38 м.
Общий поток : 8663 Кбит/сек
Название фильма : Семейка Крудс / The Croods (2013)
Дата кодирования : UTC 2013-09-23 16:46:41
Программа кодирования : mkvmerge v5.8.0 ('No Sleep / Pillow') built on Sep 2 2012 15:37:04
Библиотека кодирования : libebml v1.2.3 + libmatroska v1.3.0
Видео
Идентификатор : 1
Формат : AVC
Формат/Информация : Advanced Video Codec
Профиль формата : High@L4.1
Параметр CABAC формата : Да
Параметр ReFrames формата : 5 кадров
Идентификатор кодека : V_MPEG4/ISO/AVC
Продолжительность : 1 ч. 38 м.
Битрейт : 6763 Кбит/сек
Ширина : 1920 пикселей
Высота : 816 пикселей
Соотношение сторон : 2,35:1
Частота кадров : 23,976 кадра/сек
Цветовое пространство : YUV
Субдискретизация насыщенности : 4:2:0
Битовая глубина : 8 бит
Тип развёртки : Прогрессивная
Бит/(Пиксели*Кадры) : 0.180
Размер потока : 4,66 Гбайт (78%)
Заголовок : Release by AlexKa
Библиотека кодирования : x264 core 138 r2358 9e941d1
Настройки программы : cabac=1 / ref=5 / deblock=1:0:0 / analyse=0x3:0x133 / me=tesa / subme=11 / psy=1 / psy_rd=1.00:0.00 / mixed_ref=1 / me_range=32 / chroma_me=1 / trellis=2 / 8x8dct=1 / cqm=0 / deadzone=21,11 / fast_pskip=1 / chroma_qp_offset=-2 / threads=12 / lookahead_threads=2 / sliced_threads=0 / nr=0 / decimate=1 / interlaced=0 / bluray_compat=0 / constrained_intra=0 / bframes=7 / b_pyramid=2 / b_adapt=2 / b_bias=0 / direct=1 / weightb=1 / open_gop=0 / weightp=2 / keyint=240 / keyint_min=23 / scenecut=40 / intra_refresh=0 / rc_lookahead=60 / rc=crf / mbtree=0 / crf=19.0 / qcomp=0.70 / qpmin=0 / qpmax=69 / qpstep=4 / vbv_maxrate=50000 / vbv_bufsize=62500 / crf_max=0.0 / nal_hrd=none / ip_ratio=1.40 / pb_ratio=1.30 / aq=1:1.00
Язык : English
Аудио #1
Идентификатор : 2
Формат : AC-3
Формат/Информация : Audio Coding 3
Расширение режима : CM (complete main)
Идентификатор кодека : A_AC3
Продолжительность : 1 ч. 38 м.
Вид битрейта : Постоянный
Битрейт : 640 Кбит/сек
Каналы : 6 каналов
Расположение каналов : Front: L C R, Side: L R, LFE
Частота : 48,0 КГц
Битовая глубина : 16 бит
Метод сжатия : С потерями
Размер потока : 451 Мбайт (7%)
Заголовок : Rus
Язык : Russian
Аудио #2
Идентификатор : 3
Формат : AC-3
Формат/Информация : Audio Coding 3
Расширение режима : CM (complete main)
Идентификатор кодека : A_AC3
Продолжительность : 1 ч. 38 м.
Вид битрейта : Постоянный
Битрейт : 448 Кбит/сек
Каналы : 6 каналов
Расположение каналов : Front: L C R, Side: L R, LFE
Частота : 48,0 КГц
Битовая глубина : 16 бит
Метод сжатия : С потерями
Размер потока : 316 Мбайт (5%)
Заголовок : Ukr
Язык : Ukrainian
Аудио #3
Идентификатор : 4
Формат : AC-3
Формат/Информация : Audio Coding 3
Расширение режима : CM (complete main)
Идентификатор кодека : A_AC3
Продолжительность : 1 ч. 38 м.
Вид битрейта : Постоянный
Битрейт : 640 Кбит/сек
Каналы : 6 каналов
Расположение каналов : Front: L C R, Side: L R, LFE
Частота : 48,0 КГц
Битовая глубина : 16 бит
Метод сжатия : С потерями
Размер потока : 451 Мбайт (7%)
Заголовок : Eng
Язык : English
Текст #1
Идентификатор : 5
Формат : UTF-8
Идентификатор кодека : S_TEXT/UTF8
Идентификатор кодека/Информация : UTF-8 Plain Text
Заголовок : Rus
Язык : Russian
Текст #2
Идентификатор : 6
Формат : UTF-8
Идентификатор кодека : S_TEXT/UTF8
Идентификатор кодека/Информация : UTF-8 Plain Text
Заголовок : Ukr
Язык : Ukrainian
Текст #3
Идентификатор : 7
Формат : UTF-8
Идентификатор кодека : S_TEXT/UTF8
Идентификатор кодека/Информация : UTF-8 Plain Text
Заголовок : Eng
Язык : English
Меню
00:00:00.000 : :Chapter 01
00:02:34.986 : :Chapter 02
00:04:51.749 : :Chapter 03
00:09:01.249 : :Chapter 04
00:12:21.115 : :Chapter 05
00:14:04.801 : :Chapter 06
00:18:33.028 : :Chapter 07
00:21:56.981 : :Chapter 08
00:23:24.736 : :Chapter 09
00:26:49.773 : :Chapter 10
00:28:37.132 : :Chapter 11
00:30:25.656 : :Chapter 12
00:32:48.633 : :Chapter 13
00:36:03.369 : :Chapter 14
00:38:33.561 : :Chapter 15
00:41:34.532 : :Chapter 16
00:44:38.842 : :Chapter 17
00:48:02.628 : :Chapter 18
00:52:10.960 : :Chapter 19
00:55:17.480 : :Chapter 20
01:00:14.777 : :Chapter 21
01:03:58.083 : :Chapter 22
01:05:48.735 : :Chapter 23
01:08:44.036 : :Chapter 24
01:10:47.283 : :Chapter 25
01:12:37.144 : :Chapter 26
01:14:01.645 : :Chapter 27
01:19:48.573 : :Chapter 28
01:23:09.859 : :Chapter 29
01:25:16.735 : :Chapter 30
01:28:04.319 : :Chapter 31
01:30:02.229 : :Chapter 32
01:38:36.658 : :Chapter 33

x264

x264 [info]: frame I:1061 Avg QP:16.15 size:178656
x264 [info]: frame P:40841 Avg QP:17.12 size: 63974
x264 [info]: frame B:99962 Avg QP:19.61 size: 23259
x264 [info]: consecutive B-frames: 5.5% 5.6% 19.9% 31.7% 17.5% 17.2% 1.7% 1.0%
[Профиль] [ЛС]
Кто просматривает тему:

Форум Тема Автор Размер
3D Мультфильмы 7-ой гном в 3Д / Der 7bte Zwerg / The 7th Dwarf 3D (Борис Альинович / Boris Aljinovic) [2014, Мультфильм, Приключения, Семейный, BDremux, 1080p] BD3D BOSS 25.43 GB
Зарубежные Acтepикc и Oбeликc в Бpитaнии в 3Д / Аstеriх еt Оbеliх: Аu sеrviсе dе Sа Маjеstе 3D (Лоран Тирар / Laurent Tirard) [2012, комедия, приключения, семейный, BDrip, 1080p] OverUnder / Верти... TorrentFilm 18.68 GB
Фильмы (HD Rips | 720p, 1080p) Boждь рaзнoкoжих (Егор Анашкин) [2012, Россия, комедия, семейный, Blu-ray disc 1080i] Original Rus TorrentFilm 15.03 GB
Зарубежные Boлшeбнuк cтpaны Oз в 3Д / Тhе Wizаrd оf Оz 3D (Виктор Флеминг / Victor Fleming) [1939, Фэнтези, Приключения, Мюзикл, Семейный, BDrip, 1080p] OverUnder / Вертикальная стереопара TorrentFilm 24.37 GB
3D Мультфильмы Cмypфuкu 2 в 3Д / Тhе Sмurfs 2 3D (Раджа Госнелл / Raja Gosnell) [2013, Мультфильм, Фэнтези, Комедия, Семейный, BDrip, 1080p] OverUnder / Вертикальная стереопара reversefile 15.98 GB
Фильмы (DVD 5/9) Cтрaнa xoрoших дeтoчеk (Oльrа Kaптyр) [2013, Россия, детский, приключения, семейный, DVD5] R5 Original Rus TorrentFilm 3.64 GB
Зарубежные Maлeфиceнтa в 3Д / Маlеfісеnt 3D (Poбepт Стpoмбepг / Rоbеrt Strоmbеrg) [2014, фэнтези, семейный, мелодрама, приключения, Blu-ray Remux 1080p] BD3D TorrentFilm 33.35 GB
Зарубежные Mалeфиcентa в 3Д / Мalеficеnt 3D (Pобeрт Cтрoмбеpг / Rоbеrt Strоmbеrg) [2014, Фэнтези, Семейный, Мелодрама, Приключения, BDrip-AVC] Half OverUnder / Вертикальная анаморфная стереопара TorrentFilm 5.8 GB
Показать сообщения:    

Текущее время: Сегодня 19:05

Часовой пояс: GMT



Вы не можете начинать темы
Вы не можете отвечать на сообщения
Вы не можете редактировать свои сообщения
Вы не можете удалять свои сообщения
Вы не можете голосовать в опросах
Вы не можете прикреплять файлы к сообщениям
Вы не можете скачивать файлы