Сектор - пляж «Джуно» / Storming Juno (Тим Волочатюк / Tim Wolochatiuk) [2010, Документальный, война, история, HDTVRip 720p]

 
Автор Сообщение

TorrentFilm ®

Пол:

Стаж: 1 год 11 месяцев

Сообщений: 7741



Награды: Нет

Торрент-статистика

Создавать темы 09-Июл-2015 00:07

[Цитировать]

Сектор - пляж «Джуно» / Storming Juno
Дата/Год выпуска: 2010
Страна: Канада
Жанр: Документальный, война, история
Продолжительность: 01:28:27
Перевод: Профессиональный (одноголосый закадровый)
Оригинальная аудиодорожка: английский
Режиссер: Тим Волочатюк / Tim Wolochatiuk
Описание: В июне 1944 года западные союзники вторглись в Третий рейх в рамках операции «Оверлорд» (Overlord) - крупнейшей морской операции в истории - высадки десанта на побережье Нормандии во Франции. Канадским войскам для высадки был назначен сектор пляж «Джуно» (Juno Beach). Этот фильм изображает реальные истории нескольких канадских солдат: десантников, танкистов и пехотинцев при вторжении.
Доп. информация: Авторство релиза - alf62
В релизе две звуковые дорожки: русская и английская

качество: HDTVRip 720p
формат: MKV
Видео: MPEG-4 AVC, ~ 3928 Кбит/с, 1280x720
Аудио 1: Русский: AC3, 2 ch, 192 kbps, CBR
Аудио 2: Английский: AC3, 6 ch, 384 kbps, CBR

MediaInfo

Sektor.pljazh.Dzhuno.2010.720p.HDTV.x264.alf62.mkvФормат : MatroskaВерсия формата : Version 4 / Version 2Размер файла : 2,78 ГбайтПродолжительность : 1 ч. 28 м.Общий поток : 4504 Кбит/секДата кодирования : UTC 2015-07-01 20:48:17Программа кодирования : mkvmerge v6.6.0 ('The Edge Of The In Between') built on Dec 1 2013 17:55:00Библиотека кодирования : libebml v1.3.0 + libmatroska v1.4.1
ВидеоИдентификатор : 1Формат : AVCФормат/Информация : Advanced Video CodecПрофиль формата : High@L4.0Параметр CABAC формата : ДаПараметр ReFrames формата : 8 кадровИдентификатор кодека : V_MPEG4/ISO/AVCПродолжительность : 1 ч. 28 м.Битрейт : 3928 Кбит/секШирина : 1280 пикселейВысота : 720 пикселейСоотношение сторон : 16:9Режим частоты кадров : ПостоянныйЧастота кадров : 23,976 кадра/секЦветовое пространство : YUVСубдискретизация насыщенности : 4:2:0Битовая глубина : 8 битТип развёртки : ПрогрессивнаяБит/(Пиксели*Кадры) : 0.178Размер потока : 2,37 Гбайт (85%)Библиотека кодирования : x264 core 130 r2273 b3065e6Настройки программы : cabac=1 / ref=8 / deblock=1:-1:-1 / analyse=0x3:0x133 / me=umh / subme=7 / psy=1 / psy_rd=1.00:0.10 / mixed_ref=1 / me_range=16 / chroma_me=1 / trellis=2 / 8x8dct=1 / cqm=0 / deadzone=21,11 / fast_pskip=0 / chroma_qp_offset=-3 / threads=6 / lookahead_threads=1 / sliced_threads=0 / nr=0 / decimate=1 / interlaced=0 / bluray_compat=0 / constrained_intra=0 / bframes=3 / b_pyramid=2 / b_adapt=2 / b_bias=0 / direct=3 / weightb=1 / open_gop=0 / weightp=2 / keyint=250 / keyint_min=23 / scenecut=40 / intra_refresh=0 / rc_lookahead=50 / rc=2pass / mbtree=1 / bitrate=3928 / ratetol=1.0 / qcomp=0.60 / qpmin=0 / qpmax=69 / qpstep=4 / cplxblur=20.0 / qblur=0.5 / ip_ratio=1.40 / aq=1:1.00Default : ДаForced : Нет
Аудио #1Идентификатор : 2Формат : AC-3Формат/Информация : Audio Coding 3Расширение режима : CM (complete main)Параметр Endianness формата : BigИдентификатор кодека : A_AC3Продолжительность : 1 ч. 28 м.Вид битрейта : ПостоянныйБитрейт : 192 Кбит/секКаналы : 2 каналаРасположение каналов : Front: L RЧастота : 48,0 КГцБитовая глубина : 16 битМетод сжатия : С потерямиРазмер потока : 121 Мбайт (4%)Default : НетForced : Нет
Аудио #2Идентификатор : 3Формат : AC-3Формат/Информация : Audio Coding 3Расширение режима : CM (complete main)Параметр Endianness формата : BigИдентификатор кодека : A_AC3Продолжительность : 1 ч. 28 м.Вид битрейта : ПостоянныйБитрейт : 384 Кбит/секКаналы : 6 каналовРасположение каналов : Front: L C R, Side: L R, LFEЧастота : 48,0 КГцБитовая глубина : 16 битМетод сжатия : С потерямиРазмер потока : 243 Мбайт (9%)Язык : EnglishDefault : ДаForced : Нет

Скриншоты


[Профиль] [ЛС]
Показать сообщения:    

Текущее время: Сегодня 05:00

Часовой пояс: GMT



Вы не можете начинать темы
Вы не можете отвечать на сообщения
Вы не можете редактировать свои сообщения
Вы не можете удалять свои сообщения
Вы не можете голосовать в опросах
Вы не можете прикреплять файлы к сообщениям
Вы не можете скачивать файлы