Сектор Зеро / Section zéro [s01] (2016) HDTV 1080i | P

 
Автор Сообщение

достали все ®

Пол:

Стаж: 1 год 8 месяцев

Сообщений: 6565



Награды: 12 (Подробнее)

Mega Seeder 5 (Количество: 1) Top Releaser 4 (Количество: 1) Mega Releaser 2 (Количество: 1)
Торрент-статистика

Создавать темы 05-Авг-2016 08:58

[Цитировать]

Информация о фильме
Название: Сектор Зеро
Оригинальное название: Section zéro
Год выхода: 2016
Жанр: Фантастика, триллер, драма, приключения
Режиссер: Иван Фегyверес
В ролях: Ола Рапас, Хилде Де Бардемакер, Патрик Декам, Жюльет Дол, Паскаль Греггори, Чеки Карио, Жеральд Ларош, Лоран Мале, Катрин Маршаль, Франсис Рено
О фильме:
Гигантские транснациональные корпорации захватили власть на планете и сражаются за последние оставшиеся на Земле водные запасы. Среди таких корпораций, насаждающих в подконтрольных странах тоталитарный режим, лидирует стремительно растущая корпорация Прометей. Одна из целей корпорации — замена государственной полиции на частную армию «Чёрный эскадрон», чей глава — Монро в свою очередь мечтает заменить солдат андроидами. Монро противостоит полицейский-идеалист Сайрус, чья цель — спасти мир, каким он его знал, от полного исчезновения. Ради этой цели Сайрус формирует «Секцию Зеро» — группу, которая пойдёт на всё, использует любые методы, в том числе незаконные и жестокие, ради достижения великой цели.

Страна: Франция
Студия: CANAL+, Europacorp Television
Продолжительность: 8 x ~ 00:45:00
Перевод: Профессиональный многоголосый
Файл
Кодек: h.264
Качество: HDTV 1080i
Видео: MPEG-4 AVC, ~ 7398 Кбит/с, 1920x1080, 25.000 кадр/с
Звук:
Русский (AC3, 6 ch, 384 Кбит/с) / Профессиональный многоголосый
Русский (MP2, 2 ch, 192 Кбит/с) / Профессиональный многоголосый
Семпл

О релизе

Автор релиза - Silverok, первоисточник - Первый канал HD

MI

Общее
Идентификатор : 1 (0x1)
Полное имя : D:uTorrentSektor.zero.2016.HDTV.1080i.MediaClubSektor.zero.(1-2.serija.iz.8).2016.HDTV.1080i.MediaClub.ts
Формат : MPEG-TS
Размер файла : 5,30 Гбайт
Продолжительность : 1 ч. 30 м.
Режим общего битрейта : Переменный
Общий поток : 8394 Кбит/сек
Видео
Идентификатор : 205 (0xCD)
Идентификатор меню : 20105 (0x4E89)
Формат : AVC
Формат/Информация : Advanced Video Codec
Профиль формата : High@L4
Параметр CABAC формата : Да
Параметр ReFrames формата : 4 кадра
Идентификатор кодека : 27
Продолжительность : 1 ч. 30 м.
Битрейт : 7398 Кбит/сек
Ширина : 1920 пикселей
Высота : 1080 пикселей
Соотношение сторон : 16:9
Частота кадров : 25,000 кадров/сек
Цветовое пространство : YUV
Субдискретизация насыщенности : 4:2:0
Битовая глубина : 8 бит
Тип развёртки : Чересстрочная
Метод сохранения типа развёртки : Раздельные поля
Порядок развёртки : Верхнее поле первое
Бит/(Пиксели*Кадры) : 0.143
Размер потока : 4,67 Гбайт (88%)
Цветовой диапазон : Limited
Основные цвета : BT.709
Характеристики трансфера : BT.709
Коэффициенты матрицы : BT.709
Аудио #1
Идентификатор : 305 (0x131)
Идентификатор меню : 20105 (0x4E89)
Формат : AC-3
Формат/Информация : Audio Coding 3
Расширение режима : CM (complete main)
Параметр Endianness формата : Big
Идентификатор кодека : 6
Продолжительность : 1 ч. 30 м.
Вид битрейта : Постоянный
Битрейт : 384 Кбит/сек
Каналы : 6 каналов
Расположение каналов : Front: L C R, Side: L R, LFE
Частота : 48,0 КГц
Частота кадров : 31,250 кадров/сек (1536 spf)
Метод сжатия : С потерями
Размер потока : 248 Мбайт (5%)
Язык : Russian
Аудио #2
Идентификатор : 306 (0x132)
Идентификатор меню : 20105 (0x4E89)
Формат : MPEG Audio
Версия формата : Version 1
Профиль формата : Layer 2
Идентификатор кодека : 3
Продолжительность : 1 ч. 30 м.
Вид битрейта : Постоянный
Битрейт : 192 Кбит/сек
Каналы : 2 канала
Частота : 48,0 КГц
Метод сжатия : С потерями
Размер потока : 124 Мбайт (2%)
Язык : Russian
Текст
Идентификатор : 307 (0x133)-888
Идентификатор меню : 20105 (0x4E89)
Формат : Teletext Subtitle
Язык : Russian
Язык, дополнительно : For hearing impaired people

Скриншоты

Релиз от: | Silverok
[Профиль] [ЛС]
Показать сообщения:    

Текущее время: Сегодня 12:32

Часовой пояс: GMT



Вы не можете начинать темы
Вы не можете отвечать на сообщения
Вы не можете редактировать свои сообщения
Вы не можете удалять свои сообщения
Вы не можете голосовать в опросах
Вы не можете прикреплять файлы к сообщениям
Вы не можете скачивать файлы