(Punk Rock) Сектор Газа - Избранное (3CD) (Gold Disc) - 2002, FLAC (image + .cue), lossless

 
Автор Сообщение

sergej644 ®

Пол:

Стаж: 4 года 11 месяцев

Сообщений: 6041

Откуда: Soviet Union



Награды: Нет

Торрент-статистика

Создавать темы 29-Июл-2014 17:43

[Цитировать]

-Сектор Газа - Избранное (3CD) (Gold Disc)- Страна: Россия || Жанр: Punk Rock || Год выпуска: 2002 || Формат: FLAC (image + .cue) || Битрейт аудио: lossless || Продолжительность: 02:57:49- -

Сектор Газа - Избранное 1 (Gold Disc)

- продолжительность: 00:54:16--01. Привет, Ребята, Добрый День (02:29)
02. Щи (03:47)
03. Кума (02:44)
04. Ночь Перед Рождеством (04:30)
05. Як На Хуторе (03:27)
06. План (03:20)
07. Вечером На Лавочке (04:04)
08. Возле Дома Твоего (03:04)
09. Лирика (04:22)
10. Дурак (03:22)
11. Тёща (03:49)
12. Казачья (02:47)
13. Сельский Кайф (02:53)
14. Нас Ждут Из Темноты (03:55)
15. Пасха (05:36)

лог создания рипа

Exact Audio Copy V1.0 beta 3 from 29. August 2011
Отчёт EAC об извлечении, выполненном 9. декабря 2012, 17:30
Сектор Газа / Избранное 1 (Gold Disc)
Дисковод: PIONEER BD-RW   BDR-206   Adapter: 4  ID: 0
Режим чтения                 : Достоверность
Использование точного потока : Да
Отключение кэша аудио        : Да
Использование указателей C2  : Нет
Коррекция смещения при чтении                     : 667
Способность читать области Lead-in и Lead-out     : Нет
Заполнение пропущенных сэмплов тишиной            : Да
Удаление блоков с тишиной в начале и конце        : Нет
При вычислениях CRC использовались нулевые сэмплы : Да
Интерфейс                                         : Встроенный Win32-интерфейс для Win NT/2000
Выходной формат          : Пользовательский кодировщик
Выбранный битрейт        : 1024 kBit/s
Качество                 : Высокий
Добавление ID3-тега      : Нет
Утилита сжатия           : C:\Program Files (x86)\Exact Audio Copy\FLAC\FLAC.EXE
Дополнительные параметры : -8 -V -T "ARTIST=%artist%" -T "TITLE=%title%" -T "ALBUM=%albumtitle%" -T "DATE=%year%" -T "TRACKNUMBER=%tracknr%" -T "GENRE=%genre%" -T "COMMENT=%comment%" -T "BAND=%albuminterpret%" -T "ALBUMARTIST=%albuminterpret%" -T "COMPOSER=%composer%" %haslyrics%--tag-from-file=LYRICS="%lyricsfile%"%haslyrics% -T "DISCNUMBER=%cdnumber%" -T "TOTALDISCS=%totalcds%" -T "TOTALTRACKS=%numtracks%" %hascover%--picture="%coverfile%"%hascover% %source% -o %dest%
TOC извлечённого CD
     Трек |   Старт  | Длительность | Начальный сектор | Конечный сектор
    ---------------------------------------------------------------------
       1  |  0:00.00 |    2:29.47   |           0      |      11221
       2  |  2:29.47 |    3:47.65   |       11222      |      28311
       3  |  6:17.37 |    2:44.55   |       28312      |      40666
       4  |  9:02.17 |    4:30.03   |       40667      |      60919
       5  | 13:32.20 |    3:27.50   |       60920      |      76494
       6  | 16:59.70 |    3:20.55   |       76495      |      91549
       7  | 20:20.50 |    4:04.42   |       91550      |     109891
       8  | 24:25.17 |    3:04.00   |      109892      |     123691
       9  | 27:29.17 |    4:22.20   |      123692      |     143361
      10  | 31:51.37 |    3:22.60   |      143362      |     158571
      11  | 35:14.22 |    3:49.05   |      158572      |     175751
      12  | 39:03.27 |    2:47.40   |      175752      |     188316
      13  | 41:50.67 |    2:53.20   |      188317      |     201311
      14  | 44:44.12 |    3:55.47   |      201312      |     218983
      15  | 48:39.59 |    5:36.55   |      218984      |     244238
Характеристики диапазона извлечения и сообщения об ошибках
Выбранный диапазон
     Имя файла D:\РАЗДАЧИ!!!!\Сектор Газа - Избранное 1-3 - 2002\2002 - Избранное 1\Сектор Газа - Избранное 1 (Gold Disc).wav
     Пиковый уровень 100.0 %
     Скорость извлечения 1.7 X
     Качество диапазона 100.0 %
     CRC теста 4FC39D53
     CRC копии 4FC39D53
     Копирование... OK
Ошибок не произошло
AccurateRip: сводка
Трек  1  : извлечено точно (доверие 1)  [630D4E1F]  (AR v1)
Трек  2  : извлечено точно (доверие 1)  [62863FCD]  (AR v1)
Трек  3  : извлечено точно (доверие 1)  [1235264E]  (AR v1)
Трек  4  : извлечено точно (доверие 1)  [49E800C9]  (AR v1)
Трек  5  : извлечено точно (доверие 1)  [2A180DA5]  (AR v1)
Трек  6  : извлечено точно (доверие 1)  [0F37E2E8]  (AR v1)
Трек  7  : извлечено точно (доверие 1)  [1DFF4F09]  (AR v1)
Трек  8  : извлечено точно (доверие 1)  [E036E5FE]  (AR v1)
Трек  9  : извлечено точно (доверие 1)  [8FC3E2E4]  (AR v1)
Трек 10  : извлечено точно (доверие 1)  [1955EB71]  (AR v1)
Трек 11  : извлечено точно (доверие 1)  [3F19363A]  (AR v1)
Трек 12  : извлечено точно (доверие 1)  [38969A44]  (AR v1)
Трек 13  : извлечено точно (доверие 1)  [4A52B489]  (AR v1)
Трек 14  : извлечено точно (доверие 1)  [CF29D803]  (AR v1)
Трек 15  : извлечено точно (доверие 1)  [419C3D2A]  (AR v1)
Все треки извлечены точно
Конец отчёта

содержание индексной карты *cue

REM GENRE "Punk Rock"
REM DATE 2002
REM DISCID B40CB80F
REM COMMENT "ExactAudioCopy v1.0b3"
PERFORMER "Сектор Газа"
TITLE "Избранное 1 (Gold Disc)"
FILE "Сектор Газа - Избранное 1 (Gold Disc).flac" WAVE
  TRACK 01 AUDIO
    TITLE "Привет, Ребята, Добрый День "
    PERFORMER "Сектор Газа"
    INDEX 01 00:00:00
  TRACK 02 AUDIO
    TITLE "Щи "
    PERFORMER "Сектор Газа"
    INDEX 01 02:29:47
  TRACK 03 AUDIO
    TITLE "Кума "
    PERFORMER "Сектор Газа"
    INDEX 01 06:17:37
  TRACK 04 AUDIO
    TITLE "Ночь Перед Рождеством "
    PERFORMER "Сектор Газа"
    INDEX 01 09:02:17
  TRACK 05 AUDIO
    TITLE "Як На Хуторе "
    PERFORMER "Сектор Газа"
    INDEX 01 13:32:20
  TRACK 06 AUDIO
    TITLE "План "
    PERFORMER "Сектор Газа"
    INDEX 01 16:59:70
  TRACK 07 AUDIO
    TITLE "Вечером На Лавочке "
    PERFORMER "Сектор Газа"
    INDEX 01 20:20:50
  TRACK 08 AUDIO
    TITLE "Возле Дома Твоего "
    PERFORMER "Сектор Газа"
    INDEX 01 24:25:17
  TRACK 09 AUDIO
    TITLE "Лирика "
    PERFORMER "Сектор Газа"
    INDEX 01 27:29:17
  TRACK 10 AUDIO
    TITLE "Дурак "
    PERFORMER "Сектор Газа"
    INDEX 01 31:51:37
  TRACK 11 AUDIO
    TITLE "Тёща "
    PERFORMER "Сектор Газа"
    INDEX 01 35:14:22
  TRACK 12 AUDIO
    TITLE "Казачья "
    PERFORMER "Сектор Газа"
    INDEX 01 39:03:27
  TRACK 13 AUDIO
    TITLE "Сельский Кайф "
    PERFORMER "Сектор Газа"
    INDEX 01 41:50:67
  TRACK 14 AUDIO
    TITLE "Нас Ждут Из Темноты "
    PERFORMER "Сектор Газа"
    INDEX 01 44:44:12
  TRACK 15 AUDIO
    TITLE "Пасха "
    PERFORMER "Сектор Газа"
    INDEX 01 48:39:59

Сектор Газа - Избранное 2 (Gold Disc)

- продолжительность: 01:01:08--01. Носки (02:43)
02. Мент (02:28)
03. Колыбельная (02:27)
04. Ой, Ты Травушка Зелёная (06:04)
05. Русский Мат (02:25)
06. Моя Смерть (03:56)
07. Ява (04:40)
08. Шары (02:40)
09. Давай-Давай (03:12)
10. Частушки (05:34)
11. Нажми На Газ (01:56)
12. Колхозный Панк (03:37)
13. Попец (02:26)
14. Местные (03:04)
15. Из Чего Же... (02:30)
16. Каберне (05:08)
17. Еду Бабу Выручать (01:40)
18. Ария Василисы Прекрасной (02:17)
19. Ария Кащея (02:14)

лог создания рипа

Exact Audio Copy V1.0 beta 3 from 29. August 2011
Отчёт EAC об извлечении, выполненном 9. декабря 2012, 13:31
Сектор Газа / Избранное 2 (Gold Disc)
Дисковод: PIONEER BD-RW   BDR-206   Adapter: 4  ID: 0
Режим чтения                 : Достоверность
Использование точного потока : Да
Отключение кэша аудио        : Да
Использование указателей C2  : Нет
Коррекция смещения при чтении                     : 667
Способность читать области Lead-in и Lead-out     : Нет
Заполнение пропущенных сэмплов тишиной            : Да
Удаление блоков с тишиной в начале и конце        : Нет
При вычислениях CRC использовались нулевые сэмплы : Да
Интерфейс                                         : Встроенный Win32-интерфейс для Win NT/2000
Выходной формат          : Пользовательский кодировщик
Выбранный битрейт        : 1024 kBit/s
Качество                 : Высокий
Добавление ID3-тега      : Нет
Утилита сжатия           : C:\Program Files (x86)\Exact Audio Copy\FLAC\FLAC.EXE
Дополнительные параметры : -8 -V -T "ARTIST=%artist%" -T "TITLE=%title%" -T "ALBUM=%albumtitle%" -T "DATE=%year%" -T "TRACKNUMBER=%tracknr%" -T "GENRE=%genre%" -T "COMMENT=%comment%" -T "BAND=%albuminterpret%" -T "ALBUMARTIST=%albuminterpret%" -T "COMPOSER=%composer%" %haslyrics%--tag-from-file=LYRICS="%lyricsfile%"%haslyrics% -T "DISCNUMBER=%cdnumber%" -T "TOTALDISCS=%totalcds%" -T "TOTALTRACKS=%numtracks%" %hascover%--picture="%coverfile%"%hascover% %source% -o %dest%
TOC извлечённого CD
     Трек |   Старт  | Длительность | Начальный сектор | Конечный сектор
    ---------------------------------------------------------------------
       1  |  0:00.00 |    2:43.57   |           0      |      12281
       2  |  2:43.57 |    2:28.18   |       12282      |      23399
       3  |  5:12.00 |    2:27.05   |       23400      |      34429
       4  |  7:39.05 |    6:04.02   |       34430      |      61731
       5  | 13:43.07 |    2:25.55   |       61732      |      72661
       6  | 16:08.62 |    3:56.40   |       72662      |      90401
       7  | 20:05.27 |    4:40.00   |       90402      |     111401
       8  | 24:45.27 |    2:40.70   |      111402      |     123471
       9  | 27:26.22 |    3:12.38   |      123472      |     137909
      10  | 30:38.60 |    5:34.20   |      137910      |     162979
      11  | 36:13.05 |    1:56.65   |      162980      |     171744
      12  | 38:09.70 |    3:37.40   |      171745      |     188059
      13  | 41:47.35 |    2:26.52   |      188060      |     199061
      14  | 44:14.12 |    3:04.48   |      199062      |     212909
      15  | 47:18.60 |    2:30.17   |      212910      |     224176
      16  | 49:49.02 |    5:08.08   |      224177      |     247284
      17  | 54:57.10 |    1:40.20   |      247285      |     254804
      18  | 56:37.30 |    2:17.15   |      254805      |     265094
      19  | 58:54.45 |    2:14.08   |      265095      |     275152
Характеристики диапазона извлечения и сообщения об ошибках
Выбранный диапазон
     Имя файла D:\РАЗДАЧИ!!!!\Сектор Газа - Избранное 1-3 - 2002\2002 - Избранное 2\Сектор Газа - Избранное 2 (Gold Disc).wav
     Пиковый уровень 100.0 %
     Скорость извлечения 7.4 X
     Качество диапазона 100.0 %
     CRC теста FE125986
     CRC копии FE125986
     Копирование... OK
Ошибок не произошло
AccurateRip: сводка
Трек  1  : извлечено точно (доверие 1)  [3AD6CFEA]  (AR v1)
Трек  2  : извлечено точно (доверие 1)  [3086B214]  (AR v1)
Трек  3  : извлечено точно (доверие 1)  [5FC75305]  (AR v1)
Трек  4  : извлечено точно (доверие 1)  [759D2604]  (AR v1)
Трек  5  : извлечено точно (доверие 1)  [146B141A]  (AR v1)
Трек  6  : извлечено точно (доверие 1)  [9E3ED6F2]  (AR v1)
Трек  7  : извлечено точно (доверие 1)  [9A16DC35]  (AR v1)
Трек  8  : извлечено точно (доверие 1)  [83E60A3D]  (AR v1)
Трек  9  : извлечено точно (доверие 1)  [4B10AB13]  (AR v1)
Трек 10  : извлечено точно (доверие 1)  [25AF36ED]  (AR v1)
Трек 11  : извлечено точно (доверие 1)  [AD6DD7E2]  (AR v1)
Трек 12  : извлечено точно (доверие 1)  [F58C551C]  (AR v1)
Трек 13  : извлечено точно (доверие 1)  [ADD58106]  (AR v1)
Трек 14  : извлечено точно (доверие 1)  [A6A3D959]  (AR v1)
Трек 15  : извлечено точно (доверие 1)  [D5786426]  (AR v1)
Трек 16  : извлечено точно (доверие 1)  [D134F17A]  (AR v1)
Трек 17  : извлечено точно (доверие 1)  [5D14A806]  (AR v1)
Трек 18  : извлечено точно (доверие 1)  [16BC439A]  (AR v1)
Трек 19  : извлечено точно (доверие 1)  [CCAB239A]  (AR v1)
Все треки извлечены точно
Конец отчёта

содержание индексной карты *cue

REM GENRE "Punk Rock"
REM DATE 2002
REM DISCID 220E5413
REM COMMENT "ExactAudioCopy v1.0b3"
PERFORMER "Сектор Газа"
TITLE "Избранное 2 (Gold Disc)"
FILE "Сектор Газа - Избранное 2 (Gold Disc).flac" WAVE
  TRACK 01 AUDIO
    TITLE "Носки "
    PERFORMER "Сектор Газа"
    INDEX 01 00:00:00
  TRACK 02 AUDIO
    TITLE " Мент "
    PERFORMER "Сектор Газа"
    INDEX 01 02:43:57
  TRACK 03 AUDIO
    TITLE "Колыбельная "
    PERFORMER "Сектор Газа"
    INDEX 01 05:12:00
  TRACK 04 AUDIO
    TITLE "Ой, Ты Травушка Зелёная "
    PERFORMER "Сектор Газа"
    INDEX 01 07:39:05
  TRACK 05 AUDIO
    TITLE "Русский Мат "
    PERFORMER "Сектор Газа"
    INDEX 01 13:43:07
  TRACK 06 AUDIO
    TITLE "Моя Смерть "
    PERFORMER "Сектор Газа"
    INDEX 01 16:08:62
  TRACK 07 AUDIO
    TITLE "Ява "
    PERFORMER "Сектор Газа"
    INDEX 01 20:05:27
  TRACK 08 AUDIO
    TITLE "Шары "
    PERFORMER "Сектор Газа"
    INDEX 01 24:45:27
  TRACK 09 AUDIO
    TITLE "Давай-Давай "
    PERFORMER "Сектор Газа"
    INDEX 01 27:26:22
  TRACK 10 AUDIO
    TITLE "Частушки "
    PERFORMER "Сектор Газа"
    INDEX 01 30:38:60
  TRACK 11 AUDIO
    TITLE "Нажми На Газ "
    PERFORMER "Сектор Газа"
    INDEX 01 36:13:05
  TRACK 12 AUDIO
    TITLE "Колхозный Панк "
    PERFORMER "Сектор Газа"
    INDEX 01 38:09:70
  TRACK 13 AUDIO
    TITLE "Попец "
    PERFORMER "Сектор Газа"
    INDEX 01 41:47:35
  TRACK 14 AUDIO
    TITLE "Местные "
    PERFORMER "Сектор Газа"
    INDEX 01 44:14:12
  TRACK 15 AUDIO
    TITLE "Из Чего Же... "
    PERFORMER "Сектор Газа"
    INDEX 01 47:18:60
  TRACK 16 AUDIO
    TITLE "Каберне "
    PERFORMER "Сектор Газа"
    INDEX 01 49:49:02
  TRACK 17 AUDIO
    TITLE "Еду Бабу Выручать "
    PERFORMER "Сектор Газа"
    INDEX 01 54:57:10
  TRACK 18 AUDIO
    TITLE "Ария Василисы Прекрасной "
    PERFORMER "Сектор Газа"
    INDEX 01 56:37:30
  TRACK 19 AUDIO
    TITLE "Ария Кащея "
    PERFORMER "Сектор Газа"
    INDEX 01 58:54:45

Сектор Газа - Избранное 3 (GoldDisc)

[img][/img]http://i66.fastpic.ru/big/2014/0729/9f/0be3c2db6f99...c7d4a0ff9a9f.png продолжительность: 01:02:23--01. Мы - совковые ребята (00:25)
02. Плуги-Вуги (03:33)
03. Сифон (03:25)
04. Импотент (03:32)
05. Белая горячка (03:14)
06. Презерватив (02:29)
07. Презерватив 2 (02:34)
08. Гуляй, мужик (03:06)
09. Трипак (04:25)
10. Ангел секса (03:13)
11. Эстрадная песня (01:59)
12. Спокойной ночи, малыши (03:03)
13. Танцы после порева (03:41)
14. Метаморфоза (02:38)
15. ГАИ (04:10)
16. Новогодняя песня (02:43)
17. Рассказ, услышанный в автокомбинате (03:58)
18. Самые лучшие тачки (03:28)
19. Марш наркоманов (03:26)
20. Рога (03:13)

лог создания рипа

Exact Audio Copy V1.0 beta 3 from 29. August 2011
Отчёт EAC об извлечении, выполненном 9. декабря 2012, 16:16
Сектор Газа / Избранное 3 (Gold Disc)
Дисковод: PIONEER BD-RW   BDR-206   Adapter: 4  ID: 0
Режим чтения                 : Достоверность
Использование точного потока : Да
Отключение кэша аудио        : Да
Использование указателей C2  : Нет
Коррекция смещения при чтении                     : 667
Способность читать области Lead-in и Lead-out     : Нет
Заполнение пропущенных сэмплов тишиной            : Да
Удаление блоков с тишиной в начале и конце        : Нет
При вычислениях CRC использовались нулевые сэмплы : Да
Интерфейс                                         : Встроенный Win32-интерфейс для Win NT/2000
Выходной формат          : Пользовательский кодировщик
Выбранный битрейт        : 1024 kBit/s
Качество                 : Высокий
Добавление ID3-тега      : Нет
Утилита сжатия           : C:\Program Files (x86)\Exact Audio Copy\FLAC\FLAC.EXE
Дополнительные параметры : -8 -V -T "ARTIST=%artist%" -T "TITLE=%title%" -T "ALBUM=%albumtitle%" -T "DATE=%year%" -T "TRACKNUMBER=%tracknr%" -T "GENRE=%genre%" -T "COMMENT=%comment%" -T "BAND=%albuminterpret%" -T "ALBUMARTIST=%albuminterpret%" -T "COMPOSER=%composer%" %haslyrics%--tag-from-file=LYRICS="%lyricsfile%"%haslyrics% -T "DISCNUMBER=%cdnumber%" -T "TOTALDISCS=%totalcds%" -T "TOTALTRACKS=%numtracks%" %hascover%--picture="%coverfile%"%hascover% %source% -o %dest%
TOC извлечённого CD
     Трек |   Старт  | Длительность | Начальный сектор | Конечный сектор
    ---------------------------------------------------------------------
       1  |  0:00.00 |    0:25.61   |           0      |       1935
       2  |  0:25.61 |    3:33.47   |        1936      |      17957
       3  |  3:59.33 |    3:25.71   |       17958      |      33403
       4  |  7:25.29 |    3:32.43   |       33404      |      49346
       5  | 10:57.72 |    3:14.39   |       49347      |      63935
       6  | 14:12.36 |    2:29.71   |       63936      |      75181
       7  | 16:42.32 |    2:34.08   |       75182      |      86739
       8  | 19:16.40 |    3:06.19   |       86740      |     100708
       9  | 22:22.59 |    4:25.11   |      100709      |     120594
      10  | 26:47.70 |    3:13.05   |      120595      |     135074
      11  | 30:01.00 |    1:59.28   |      135075      |     144027
      12  | 32:00.28 |    3:03.20   |      144028      |     157772
      13  | 35:03.48 |    3:41.14   |      157773      |     174361
      14  | 38:44.62 |    2:38.20   |      174362      |     186231
      15  | 41:23.07 |    4:10.61   |      186232      |     205042
      16  | 45:33.68 |    2:43.64   |      205043      |     217331
      17  | 48:17.57 |    3:58.00   |      217332      |     235181
      18  | 52:15.57 |    3:28.45   |      235182      |     250826
      19  | 55:44.27 |    3:26.01   |      250827      |     266277
      20  | 59:10.28 |    3:13.34   |      266278      |     280786
Характеристики диапазона извлечения и сообщения об ошибках
Выбранный диапазон
     Имя файла D:\РАЗДАЧИ!!!!\Сектор Газа - Избранное 1-3 - 2002\2002 - Избранное 3\Сектор Газа - Избранное 3 (Gold Disc).wav
     Пиковый уровень 100.0 %
     Скорость извлечения 2.0 X
     Качество диапазона 100.0 %
     CRC теста D8AF21DA
     CRC копии D8AF21DA
     Копирование... OK
Ошибок не произошло
AccurateRip: сводка
Трек  1  : извлечено точно (доверие 1)  [528FB51B]  (AR v1)
Трек  2  : извлечено точно (доверие 1)  [3FE20298]  (AR v1)
Трек  3  : извлечено точно (доверие 1)  [AD2EDCEE]  (AR v1)
Трек  4  : извлечено точно (доверие 1)  [9B6CACCB]  (AR v1)
Трек  5  : извлечено точно (доверие 1)  [9D9A0356]  (AR v1)
Трек  6  : извлечено точно (доверие 1)  [528F86B7]  (AR v1)
Трек  7  : извлечено точно (доверие 1)  [47ABD920]  (AR v1)
Трек  8  : извлечено точно (доверие 1)  [CF14C247]  (AR v1)
Трек  9  : извлечено точно (доверие 1)  [EEAB05C7]  (AR v1)
Трек 10  : извлечено точно (доверие 1)  [A71CA6F1]  (AR v1)
Трек 11  : извлечено точно (доверие 1)  [6E03BE81]  (AR v1)
Трек 12  : извлечено точно (доверие 1)  [D82AF784]  (AR v1)
Трек 13  : извлечено точно (доверие 1)  [1B4A18FC]  (AR v1)
Трек 14  : извлечено точно (доверие 1)  [136BDCD4]  (AR v1)
Трек 15  : извлечено точно (доверие 1)  [E32084E1]  (AR v1)
Трек 16  : извлечено точно (доверие 1)  [DACA7EF2]  (AR v1)
Трек 17  точность не определена (достоверность 1)  [21D80042], AccurateRip вернул [91752981]  (AR v2)
Трек 18  : извлечено точно (доверие 1)  [0FC44655]  (AR v1)
Трек 19  : извлечено точно (доверие 1)  [855DD2B8]  (AR v1)
Трек 20  : извлечено точно (доверие 1)  [3B534E69]  (AR v1)
19 трек(и) скопированы точно
1 трек(и) не удалось проверить на точность
Некоторые треки не прошли проверку на точность
Конец отчёта

содержание индексной карты *cue

REM GENRE "Punk Rock"
REM DATE 2002
REM DISCID 130E9F14
REM COMMENT "ExactAudioCopy v1.0b3"
PERFORMER "Сектор Газа"
TITLE "Избранное 3 (Gold Disc)"
FILE "Сектор Газа - Избранное 3 (Gold Disc).flac" WAVE
  TRACK 01 AUDIO
    TITLE "Мы - совковые ребята"
    PERFORMER "Сектор Газа"
    INDEX 01 00:00:00
  TRACK 02 AUDIO
    TITLE "Плуги-Вуги"
    PERFORMER "Сектор Газа"
    INDEX 00 00:25:60
    INDEX 01 00:25:61
  TRACK 03 AUDIO
    TITLE "Сифон"
    PERFORMER "Сектор Газа"
    INDEX 00 03:59:32
    INDEX 01 03:59:33
  TRACK 04 AUDIO
    TITLE "Импотент"
    PERFORMER "Сектор Газа"
    INDEX 00 07:25:28
    INDEX 01 07:25:29
  TRACK 05 AUDIO
    TITLE "Белая горячка"
    PERFORMER "Сектор Газа"
    INDEX 00 10:57:71
    INDEX 01 10:57:72
  TRACK 06 AUDIO
    TITLE "Презерватив"
    PERFORMER "Сектор Газа"
    INDEX 00 14:12:35
    INDEX 01 14:12:36
  TRACK 07 AUDIO
    TITLE "Презерватив 2"
    PERFORMER "Сектор Газа"
    INDEX 00 16:42:31
    INDEX 01 16:42:32
  TRACK 08 AUDIO
    TITLE "Гуляй, мужик"
    PERFORMER "Сектор Газа"
    INDEX 00 19:16:39
    INDEX 01 19:16:40
  TRACK 09 AUDIO
    TITLE "Трипак "
    PERFORMER "Сектор Газа"
    INDEX 00 22:22:58
    INDEX 01 22:22:59
  TRACK 10 AUDIO
    TITLE "Ангел секса"
    PERFORMER "Сектор Газа"
    INDEX 00 26:47:69
    INDEX 01 26:47:70
  TRACK 11 AUDIO
    TITLE "Эстрадная песня"
    PERFORMER "Сектор Газа"
    INDEX 00 30:00:74
    INDEX 01 30:01:00
  TRACK 12 AUDIO
    TITLE "Спокойной ночи, малыши"
    PERFORMER "Сектор Газа"
    INDEX 00 32:00:27
    INDEX 01 32:00:28
  TRACK 13 AUDIO
    TITLE "Танцы после порева"
    PERFORMER "Сектор Газа"
    INDEX 00 35:03:47
    INDEX 01 35:03:48
  TRACK 14 AUDIO
    TITLE "Метаморфоза"
    PERFORMER "Сектор Газа"
    INDEX 00 38:44:61
    INDEX 01 38:44:62
  TRACK 15 AUDIO
    TITLE "ГАИ"
    PERFORMER "Сектор Газа"
    INDEX 00 41:23:06
    INDEX 01 41:23:07
  TRACK 16 AUDIO
    TITLE "Новогодняя песня"
    PERFORMER "Сектор Газа"
    INDEX 00 45:33:67
    INDEX 01 45:33:68
  TRACK 17 AUDIO
    TITLE "Рассказ, услышанный в автокомбинате"
    PERFORMER "Сектор Газа"
    INDEX 00 48:17:56
    INDEX 01 48:17:57
  TRACK 18 AUDIO
    TITLE "Самые лучшие тачки"
    PERFORMER "Сектор Газа"
    INDEX 01 52:15:57
  TRACK 19 AUDIO
    TITLE "Марш наркоманов"
    PERFORMER "Сектор Газа"
    INDEX 00 55:44:26
    INDEX 01 55:44:27
  TRACK 20 AUDIO
    TITLE "Рога"
    PERFORMER "Сектор Газа"
    INDEX 00 59:10:27
    INDEX 01 59:10:28
---
[Профиль] [ЛС]

Создавать темы 13-Авг-2015 10:30 (спустя 1 год)

Топик был перенесен из форума Отечественная в форум Rock
sergej644
 
Показать сообщения:    

Текущее время: Сегодня 18:53

Часовой пояс: GMT



Вы не можете начинать темы
Вы не можете отвечать на сообщения
Вы не можете редактировать свои сообщения
Вы не можете удалять свои сообщения
Вы не можете голосовать в опросах
Вы не можете прикреплять файлы к сообщениям
Вы не можете скачивать файлы