Секс-Трип / The Sex Trip (2017) WEB-DLRip-AVC | iTunes

 
Автор Сообщение

Swager ®

Пол:

Стаж: 2 года 2 месяца

Сообщений: 1368



Награды: 4 (Подробнее)

За внесенный вклад в развитие сайта (Количество: 1) Top Releaser 2 (Количество: 1) Mega Seeder 2 (Количество: 1)
Торрент-статистика

Создавать темы 05-Окт-2017 07:33

[Цитировать]

Информация о фильме
Название: Секс-Трип
Оригинальное название: The Sex Trip
Год выхода: 2017
Жанр: фэнтези, комедия
Режиссер: Энтони Дж. Коэн
В ролях: Джейд Рэмси, Луис Мэндилор, Марк Крамптон, Шарлотта Эллен Прайс, Рэйчел Бритаг, Наташа Бласик, Ребекка Грант, Джим Хэнкс, Дэн Нир, Эштон Суинфорд
О фильме :
Эдди Гринлиф профессиональный ловелас. Он пишет книги о соблазнении женщин, ведёт специальные тренинги и дает интервью по этому поводу. Но наш парень не только теоретик, он самый настоящий практик, всё время готов покорить кого-нибудь из противоположного пола и затащить её в постель. Но всему приходит конец. Как-то спеша на вечеринку, его останавливает страшная старушка с требованием поцеловать её. Он отказывается. На утро по велению магии оказывается в женском теле привлекательной брюнетки. Из этого необходимо извлечь урок, и найти способ все вернуть назад.

Страна: США, Bridgegate FIlms
Продолжительность: 01:21:59
Перевод: Профессиональный (полное дублирование) | iTunes
Файл
Формат: MKV
Качество: WEB-DLRip-AVC
Видео: MPEG-4 AVC, 768x328, ~ 1199 Кбит/с
Аудио: AAC-LC, 2 ch, ~72 Кбит/с

MI

Общее
Уникальный идентификатор : 253031153319072530682910937241235734819 (0xBE5C070A809D7A4384D6A39BAC2FC123)
Полное имя : D:MOVIESSekas.Treep.2O17.ExKinoRay.mkv
Формат : Matroska
Версия формата : Version 4 / Version 2
Размер файла : 747 Мбайт
Продолжительность : 1 ч. 21 м.
Общий поток : 1273 Кбит/сек
Дата кодирования : UTC 2017-10-05 05:57:24
Программа кодирования : mkvmerge v15.0.0 ('Duel with the Devil') 64-bit
Библиотека кодирования : libebml v1.3.5 + libmatroska v1.4.5
Видео
Идентификатор : 1
Формат : AVC
Формат/Информация : Advanced Video Codec
Профиль формата : High@L4.1
Параметр CABAC формата : Да
Параметр RefFrames формата : 10 кадров
Идентификатор кодека : V_MPEG4/ISO/AVC
Продолжительность : 1 ч. 21 м.
Битрейт : 1199 Кбит/сек
Ширина : 768 пикселей
Высота : 328 пикселей
Соотношение сторон : 2,35:1
Режим частоты кадров : Постоянный
Частота кадров : 24,000 кадра/сек
Цветовое пространство : YUV
Субдискретизация насыщенности : 4:2:0
Битовая глубина : 8 бит
Тип развёртки : Прогрессивная
Бит/(Пиксели*Кадры) : 0.198
Размер потока : 703 Мбайт (94%)
Библиотека кодирования : x264 core 152 r2851kMod ba24899
Настройки программы : cabac=1 / ref=10 / deblock=1:-3:-3 / analyse=0x3:0x113 / me=umh / subme=11 / psy=1 / fade_compensate=0.00 / psy_rd=1.00:0.10 / mixed_ref=1 / me_range=32 / chroma_me=1 / trellis=2 / 8x8dct=1 / cqm=0 / deadzone=21,11 / fast_pskip=0 / chroma_qp_offset=-3 / threads=6 / lookahead_threads=1 / sliced_threads=0 / nr=0 / decimate=0 / interlaced=0 / bluray_compat=0 / constrained_intra=0 / bframes=10 / b_pyramid=2 / b_adapt=2 / b_bias=0 / direct=3 / weightb=1 / open_gop=0 / weightp=2 / keyint=240 / keyint_min=23 / scenecut=40 / intra_refresh=0 / rc_lookahead=40 / rc=2pass / mbtree=1 / bitrate=1199 / ratetol=1.0 / qcomp=0.60 / qpmin=0 / qpmax=69 / qpstep=4 / cplxblur=20.0 / qblur=0.5 / vbv_maxrate=50000 / vbv_bufsize=62500 / nal_hrd=none / filler=0 / ip_ratio=1.40 / aq=3:1.00
Default : Да
Forced : Нет
Аудио
Идентификатор : 2
Формат : AAC
Формат/Информация : Advanced Audio Codec
Профиль формата : LC
Идентификатор кодека : A_AAC
Продолжительность : 1 ч. 21 м.
Битрейт : 72,0 Кбит/сек
Каналы : 2 канала
Расположение каналов : Front: L R
Частота : 48,0 КГц
Частота кадров : 46,875 кадров/сек (1024 SPF)
Метод сжатия : С потерями
Задержка видео : 9 мс.
Размер потока : 42,2 Мбайт (6%)
Default : Да
Forced : Нет

Скриншоты


[Профиль] [ЛС]
Кто просматривает тему:

Показать сообщения:    

Текущее время: Сегодня 18:59

Часовой пояс: GMT



Вы не можете начинать темы
Вы не можете отвечать на сообщения
Вы не можете редактировать свои сообщения
Вы не можете удалять свои сообщения
Вы не можете голосовать в опросах
Вы не можете прикреплять файлы к сообщениям
Вы не можете скачивать файлы