Секс на две ночи / Two Night Stand (Макс Николс / Max Nichols) [2014, США, Комедия, мелодрама, WEB-DLRip] MVO

 
Автор Сообщение

TorrentFilm ®

Пол:

Стаж: 2 года

Сообщений: 7741



Награды: Нет

Торрент-статистика

Создавать темы 26-Дек-2014 02:00

[Цитировать]

Секс на две ночи / Two Night Stand
Страна: США
Жанр: Комедия, мелодрама
Год выпуска: 2014
Продолжительность: 01:26:57
Перевод: Профессиональный (многоголосый закадровый)
Оригинальная аудиодорожка: нет
Cубтитры: нет
Режиссер: Макс Николс / Max Nichols
В ролях: Анали Типтон, Майлз Теллер, Джессика Зор, Скотт Мескади, Берто Колон, Джош Салатин, Келлин Линдсэй, Майкл Шоуолтер, Ливэн Рамбин, Джои Лорен Эдамс
Описание: Девушка застряла дома у парня на целый день из-за ужасного снежного шторма. Благодаря этому несчастному случаю молодые люди получают возможность познакомиться поближе.

Сэмпл
Качество: WEB-DLRip
Контейнер: AVI
Видео: 688x288 (2.39:1), 23.976 fps, XviD build 50 ~939 kbps avg, 0.20 bit/pixel
Аудио: 48 kHz, AC3 Dolby Digital, 2/0 (L,R) ch, ~256 kbps

Рип на 1.36 GB

MI

neral
Complete name : C:\Users\Вячеслав\Downloads\Секс на две ночи.2014.743.WEB-DLRip.Некул.avi
Format : AVI
Format/Info : Audio Video Interleave
File size : 743 MiB
Duration : 1h 26mn
Overall bit rate : 1 205 Kbps
Writing application : VirtualDubMod 1.5.10.3 | www.virtualdub-fr.org || (build 2550/release)
Writing library : VirtualDubMod build 2550/release
Video
ID : 0
Format : MPEG-4 Visual
Format profile : Advanced Simple@L5
Format settings, BVOP : 2
Format settings, QPel : No
Format settings, GMC : No warppoints
Format settings, Matrix : Default (MPEG)
Codec ID : XVID
Codec ID/Hint : XviD
Duration : 1h 26mn
Bit rate : 940 Kbps
Width : 688 pixels
Height : 288 pixels
Display aspect ratio : 2.40:1
Frame rate : 23.976 fps
Color space : YUV
Chroma subsampling : 4:2:0
Bit depth : 8 bits
Scan type : Progressive
Compression mode : Lossy
Bits/(Pixel*Frame) : 0.198
Stream size : 579 MiB (78%)
Writing library : XviD 1.2.1 (UTC 2008-12-04)
Audio
ID : 1
Format : AC-3
Format/Info : Audio Coding 3
Mode extension : CM (complete main)
Format settings, Endianness : Big
Codec ID : 2000
Duration : 1h 26mn
Bit rate mode : Constant
Bit rate : 256 Kbps
Channel(s) : 2 channels
Channel positions : Front: L R
Sampling rate : 48.0 KHz
Bit depth : 16 bits
Compression mode : Lossy
Stream size : 158 MiB (21%)
Alignment : Split accross interleaves
Interleave, duration : 42 ms (1.00 video frame)
Interleave, preload duration : 500 ms

Скриншоты

[Профиль] [ЛС]
Кто просматривает тему:

Показать сообщения:    

Текущее время: Сегодня 20:33

Часовой пояс: GMT



Вы не можете начинать темы
Вы не можете отвечать на сообщения
Вы не можете редактировать свои сообщения
Вы не можете удалять свои сообщения
Вы не можете голосовать в опросах
Вы не можете прикреплять файлы к сообщениям
Вы не можете скачивать файлы