Секс и 101 смерть / Sex and Death 101 (Дэниэл Уотерс / Daniel Waters) [2007, США, драма, мелодрама, комедия, BDRip] MVO (R5)

 
Автор Сообщение

painkiller ®

Стаж: 2 года 3 месяца

Сообщений: 582



Награды: Нет

Торрент-статистика

Создавать темы 16-Авг-2014 01:27

[Цитировать]

Секс и 101 смерть / Sex and Death 101
Страна: США
Жанр: драма, мелодрама, комедия
Год выпуска: 2007
Продолжительность: 01:57:31
Перевод: Профессиональный (многоголосый закадровый) R5
Cубтитры: нет
Режиссер: Дэниэл Уотерс / Daniel Waters
В ролях: Саймон Бейкер, Вайнона Райдер, Лесли Бибб, Минди Кон, Джули Боуэн, Дэш Майок, Нил Флинн, Пэттон Освальт, Фрэнсис Фишер, Роберт Уиздом, Маршалл Белл, Софи Монк, Танк Сейд, Наташа Мальте, Поллианна МакИнтош, Роберт Патрик Бенедикт, Джессика Кайпер, Винтер Эйв Золи, Синди Пикетт
Описание: Когда Родерик Бланк получает электронное письмо со списком всех его сексуальных партнерш, прошлых и будущих, он, движимый желанием и любопытством, воплощает в реальность полученное письмо и тащит в постель каждую из списка, только лишь для того, чтобы понять, что все, что ему нужно — это любовь, и та самая, последняя, любимая — серийная убийца…
Доп. информация:
Качество видео: BDRip | -DaRkY-/BDRemux 1080p
Формат видео: AVI
Видео: 720x400 (1.80:1), 23.976 fps, XviD build 73 ~1315 kbps avg, 0.19 bit/pixel
Аудио: 48 kHz, AC3 Dolby Digital, 3/2 (L,C,R,l,r) + LFE ch, ~448 kbps

MediaInfo

Общее
Полное имя : C:\Documents and Settings\Пользователь\Рабочий стол\Торрентс.ру\Sex.and.Death.101.2007.BDRip.MVO_by_LBS.avi
Формат : AVI
Формат/Информация : Audio Video Interleave
Размер файла : 1,46 Гбайт
Продолжительность : 1 ч. 57 м.
Общий поток : 1773 Кбит/сек
Режиссёр : Last Boy Scout
Программа кодирования : VirtualDubMod 1.5.10.3 | www.virtualdub-fr.org || (build 2550/release)
Правообладатель : torrentfilm.net 02.03.2014
Примечание : BDRip MVO (R5)
Видео
Идентификатор : 0
Формат : MPEG-4 Visual
Профиль формата : Advanced Simple@L5
Параметр BVOP формата : 1
Параметр QPel формата : Нет
Параметр GMC формата : Без точки перехода
Параметр матрицы формата : Выборочная
Идентификатор кодека : XVID
Идентификатор кодека/Подсказка : XviD
Продолжительность : 1 ч. 57 м.
Битрейт : 1316 Кбит/сек
Ширина : 720 пикселей
Высота : 400 пикселей
Соотношение сторон : 16:9
Частота кадров : 23,976 кадра/сек
Цветовое пространство : YUV
Субдискретизация насыщенности : 4:2:0
Битовая глубина : 8 бит
Тип развёртки : Прогрессивная
Метод сжатия : С потерями
Бит/(Пиксели*Кадры) : 0.191
Размер потока : 1,08 Гбайт (74%)
Библиотека кодирования : XviD 73
Аудио
Идентификатор : 1
Формат : AC-3
Формат/Информация : Audio Coding 3
Расширение режима : CM (complete main)
Параметр Endianness формата : Big
Идентификатор кодека : 2000
Продолжительность : 1 ч. 57 м.
Вид битрейта : Постоянный
Битрейт : 448 Кбит/сек
Каналы : 6 каналов
Расположение каналов : Front: L C R, Side: L R, LFE
Частота : 48,0 КГц
Битовая глубина : 16 бит
Метод сжатия : С потерями
Размер потока : 376 Мбайт (25%)
Выравнивание : Разделение по промежуткам
Продолжительность промежутка : 42 мс. (1,00 видеокадр)
Время предзагрузки промежутка : 500 мс.

Скриншоты

-
[Профиль] [ЛС]

Создавать темы 06-Авг-2015 23:09 (спустя 11 месяцев 21 день)

Топик был перенесен из форума Фильмы до 2014 года в форум Фильмы до 2012 года
sergej644
 
Кто просматривает тему:

Показать сообщения:    

Текущее время: Сегодня 10:08

Часовой пояс: GMT



Вы не можете начинать темы
Вы не можете отвечать на сообщения
Вы не можете редактировать свои сообщения
Вы не можете удалять свои сообщения
Вы не можете голосовать в опросах
Вы не можете прикреплять файлы к сообщениям
Вы не можете скачивать файлы