Секрет Зоар / The Zohar Secret (2015) WEBRip 720p

 
Автор Сообщение

Russian Mafia ®

Пол:

Стаж: 1 год 8 месяцев

Сообщений: 4257



Награды: 10 (Подробнее)

Top Releaser 5 (Количество: 1) За внесенный вклад в развитие сайта (Количество: 1) Mega Seeder 1 (Количество: 1)
Торрент-статистика

Создавать темы 13-Окт-2015 15:12

[Цитировать]

Информация о фильме
Название: Секрет Зоар
Оригинальное название: The Zohar Secret
Год выхода: 2015
Жанр: фантастика, драма, комедия
Режиссер: Владэк Занковски
В ролях: Александр Демидов, Ирина Баринова, Генри Давид, Рой Мирон, Олег Фендюра, Светлана Демидов, Сергей Попов, Игал Резник, Юрий Ядыкин, Владимир Золин
О фильме:
В руки Макса попал древний свиток, в котором была описана вся история человечества от начала и до самого конца. Попытавшись воспользоваться этой информацией в собственных интересах, Макс запускает механизм, который начинает влиять на его жизнь.

Страна: Израиль, США, Украина, Россия, Испания
Продолжительность: 02:03:49
Язык: руский (Дубляж)
Файл
Кодек: AVC
Качество: WEBRip 720p
Видео: ~2 016 Кбит/с, 1280x536, 24 кадра/с
Звук: MP3, 2 ch, 128 Kbps
Субтитры: нет
--

M/I

General
Unique ID : 179769594414024234501078003814611103000 (0x873E5D4FB0C9E892B8C8D80B39F92D18)
Complete name : D:Секрет Зоар The Zohar Secret.mkv
Format : Matroska
Format version : Version 4 / Version 2
File size : 1.89 GiB
Duration : 2h 3mn
Overall bit rate : 2 188 Kbps
Encoded date : UTC 2015-10-13 13:31:48
Writing application : mkvmerge v8.3.0 ('Over the Horizon') 64bit
Writing library : libebml v1.3.1 + libmatroska v1.4.2
DURATION : 02:03:49.172000000
NUMBER_OF_FRAMES : 284398
NUMBER_OF_BYTES : 118866755
_STATISTICS_WRITING_APP : mkvmerge v8.3.0 ('Over the Horizon') 64bit
_STATISTICS_WRITING_DATE_UT : 2015-10-13 13:31:48
_STATISTICS_TAGS : BPS DURATION NUMBER_OF_FRAMES NUMBER_OF_BYTES
Video
ID : 1
Format : AVC
Format/Info : Advanced Video Codec
Format profile : Baseline@L3.1
Format settings, CABAC : No
Format settings, ReFrames : 1 frame
Format settings, GOP : M=1, N=12
Codec ID : V_MPEG4/ISO/AVC
Duration : 2h 3mn
Bit rate : 2 016 Kbps
Width : 1 280 pixels
Height : 536 pixels
Display aspect ratio : 2.40:1
Frame rate mode : Constant
Frame rate : 24.000 fps
Color space : YUV
Chroma subsampling : 4:2:0
Bit depth : 8 bits
Scan type : Progressive
Bits/(Pixel*Frame) : 0.122
Stream size : 1.74 GiB (92%)
Language : English
Default : Yes
Forced : No
Audio
ID : 2
Format : MPEG Audio
Format version : Version 1
Format profile : Layer 3
Mode : Joint stereo
Codec ID : A_MPEG/L3
Codec ID/Hint : MP3
Duration : 2h 3mn
Bit rate mode : Constant
Bit rate : 128 Kbps
Channel(s) : 2 channels
Sampling rate : 44.1 KHz
Compression mode : Lossy
Stream size : 113 MiB (6%)
Language : Russian
Default : Yes
Forced : No
-- --
[Профиль] [ЛС]
Кто просматривает тему:

Форум Тема Автор Размер
BBC BBC: Мир природы. Секреты подземелий майя / Natural World. Secrets of the Maya Underworld (Тим Мартин) [2005 г., Документальный, природа, флора, фауна, HDTVRip-AVC 720p] skorpionN 1.49 GB
BBC BBC: Помпеи: новые секреты / Pompeii: New Secrets Revealed with Mary Beard (Ian A. Hunt) [2016 г., Документальный, история, исследования, HDTVRip 720p] skorpionN 1.8 GB
BBC BBC: Секреты квантовой физики / The Secrets of Quantum Physics (Тим Усборн) [2014 г., Документальный, физика, HDTVRip 720p] skorpionN 4.43 GB
Discovery Discovery: Секреты и Заговоры / Codes and Conspiracies [сезон 1 серии 1-6 из 6] (Tim Evans) [2014 г., Документальный, исследование, история, SATRip] skorpionN 3.69 GB
Discovery Discovery: Секреты и Заговоры / Codes and Conspiracies [сезон 2 серии 1-6 из 6] (Darryl Rehr) [2015 г., Документальный, исследование, история, SATRip] skorpionN 3.69 GB
Фильмы 2014 года Kingsman: Секретная служба / Kingsman: The Secret Service (2014) HDTVRip | Чистый звук достали все 1.9 GB
Фильмы (HD Rips | 720p, 1080p) Kingsman: Секретная служба / Kingsman: The Secret Service (2014) WEB-DL 720p | iTunes достали все 4.27 GB
R.G.TorrentFilm Video Kingsman: Секретная служба / Kingsman: The Secret Service (Мэттью Вон / Matthew Vaughn) [2014 г., боевик, комедия, криминал, приключения, HDRip] AleksSin 2.79 GB
Показать сообщения:    

Текущее время: Сегодня 23:30

Часовой пояс: GMT



Вы не можете начинать темы
Вы не можете отвечать на сообщения
Вы не можете редактировать свои сообщения
Вы не можете удалять свои сообщения
Вы не можете голосовать в опросах
Вы не можете прикреплять файлы к сообщениям
Вы не можете скачивать файлы