Секреты секса и любви / Kiki, el amor se hace (2016) BDRip 720p | iTunes

 
Автор Сообщение

достали все ®

Пол:

Стаж: 1 год 8 месяцев

Сообщений: 6527



Награды: 12 (Подробнее)

Mega Seeder 2 (Количество: 1) За внесенный вклад в развитие сайта (Количество: 1) Top Releaser 3 (Количество: 1)
Торрент-статистика

Создавать темы 16-Окт-2016 08:16

[Цитировать]

Информация о фильме
Название: Секреты секса и любви
Оригинальное название: Kiki, el amor se hace
Год выхода: 2016
Жанр: комедия
Режиссер: Пако Леон
В ролях: Наталия де Молина, Алехандро Гарсия, Джакобо Санчес, Сильвия Рей, Пако Леон, Ана Кац, Eduardo Recabarren, Белен Куэста, Кандела Пенья, Луис Кальехо
О фильме:
Жарким летом в Мадриде пять пар в томлении страсти открывают для себя весьма неожиданные формы сексуального влечения. Изумление и страх перед неведомыми удовольствиями сменяются неконтролируемым желанием. Табу рушатся, и теперь ничто не в силах удержать героев от любовных экспериментов.

Страна: Испания
Студия: Instituto de la Cinematografía y de las Artes Audiovisuales (ICAA), Telecinco Cinema
Продолжительность: 01:42:05
Перевод: Дублированный | iTunes
Файл
Кодек: MPEG4 Video (H264)
Качество: BDRip 720p | iTunes
Видео: 1280x536, 4590 kбит/сек, 24fps
Звук:
Аудио 1: AC3, 6 ch, 384 kbps, CBR - Русский
Аудио 2: DTS, 6 ch, 1509 kbps, CBR - Испанский
Субтитры: Английские
Семпл

Mediainfo

Общее
Уникальный идентификатор : 241994001659448558496049438117866043315 (0xB60E597350650DE4A0B44A859844F7B3)
Полное имя : Quickie Love Is So.2016.BDRip.720p.mkv
Формат : Matroska
Версия формата : Version 2
Размер файла : 4,62 Гбайт
Продолжительность : 1 ч. 42 м.
Общий поток : 6481 Кбит/сек
Дата кодирования : UTC 2016-10-15 21:17:47
Программа кодирования : mkvmerge v4.0.0 ('The Stars were mine') сборка от Jun 6 2010 16:18:42
Библиотека кодирования : libebml v1.0.0 + libmatroska v1.0.0
Видео
Идентификатор : 1
Формат : AVC
Формат/Информация : Advanced Video Codec
Профиль формата : High@L4.1
Параметр CABAC формата : Да
Параметр ReFrames формата : 5 кадров
Идентификатор кодека : V_MPEG4/ISO/AVC
Продолжительность : 1 ч. 42 м.
Битрейт : 4590 Кбит/сек
Ширина : 1280 пикселей
Высота : 536 пикселей
Соотношение сторон : 2,40:1
Режим частоты кадров : Постоянный
Частота кадров : 24,000 кадра/сек
Цветовое пространство : YUV
Субдискретизация насыщенности : 4:2:0
Битовая глубина : 8 бит
Тип развёртки : Прогрессивная
Бит/(Пиксели*Кадры) : 0.279
Размер потока : 3,18 Гбайт (69%)
Библиотека кодирования : x264 core 148 r2705 3f5ed56
Настройки программы : cabac=1 / ref=5 / deblock=1:0:0 / analyse=0x3:0x133 / me=umh / subme=9 / psy=1 / psy_rd=1.00:0.00 / mixed_ref=1 / me_range=16 / chroma_me=1 / trellis=1 / 8x8dct=1 / cqm=0 / deadzone=21,11 / fast_pskip=0 / chroma_qp_offset=-2 / threads=12 / lookahead_threads=1 / sliced_threads=0 / nr=0 / decimate=1 / interlaced=0 / bluray_compat=0 / constrained_intra=0 / bframes=3 / b_pyramid=2 / b_adapt=2 / b_bias=0 / direct=3 / weightb=1 / open_gop=0 / weightp=2 / keyint=250 / keyint_min=23 / scenecut=40 / intra_refresh=0 / rc_lookahead=50 / rc=2pass / mbtree=1 / bitrate=4590 / ratetol=1.0 / qcomp=0.60 / qpmin=0 / qpmax=69 / qpstep=4 / cplxblur=20.0 / qblur=0.5 / ip_ratio=1.40 / aq=1:1.00
Язык : English
Default : Нет
Forced : Нет
Аудио #1
Идентификатор : 2
Формат : AC-3
Формат/Информация : Audio Coding 3
Расширение режима : CM (complete main)
Параметр Endianness формата : Big
Идентификатор кодека : A_AC3
Продолжительность : 1 ч. 42 м.
Вид битрейта : Постоянный
Битрейт : 384 Кбит/сек
Каналы : 6 каналов
Расположение каналов : Front: L C R, Side: L R, LFE
Частота : 48,0 КГц
Частота кадров : 31,250 кадров/сек (1536 spf)
Метод сжатия : С потерями
Размер потока : 281 Мбайт (6%)
Заголовок : DUB | iTunes
Язык : Russian
Default : Да
Forced : Да
Аудио #2
Идентификатор : 3
Формат : DTS
Формат/Информация : Digital Theater Systems
Режим : 16
Параметр Endianness формата : Big
Идентификатор кодека : A_DTS
Продолжительность : 1 ч. 42 м.
Вид битрейта : Постоянный
Битрейт : 1510 Кбит/сек
Каналы : 6 каналов
Расположение каналов : Front: L C R, Side: L R, LFE
Частота : 48,0 КГц
Частота кадров : 93,750 кадра/сек (512 spf)
Битовая глубина : 24 бит
Метод сжатия : С потерями
Задержка видео : 11 мс.
Размер потока : 1,08 Гбайт (23%)
Язык : Spanish
Default : Нет
Forced : Нет
Текст
Идентификатор : 4
Формат : UTF-8
Идентификатор кодека : S_TEXT/UTF8
Идентификатор кодека/Информация : UTF-8 Plain Text
Язык : English
Default : Нет
Forced : Нет
Меню
00:00:00.000 : en:00:00:00.000
00:07:51.667 : en:00:07:51.667
00:13:58.000 : en:00:13:58.000
00:20:19.792 : en:00:20:19.792
00:27:09.750 : en:00:27:09.750
00:34:49.708 : en:00:34:49.708
00:40:58.167 : en:00:40:58.167
00:46:34.458 : en:00:46:34.458
00:55:08.292 : en:00:55:08.292
01:00:57.875 : en:01:00:57.875
01:07:49.875 : en:01:07:49.875
01:14:19.750 : en:01:14:19.750
01:20:49.750 : en:01:20:49.750
01:26:54.542 : en:01:26:54.542
01:34:00.583 : en:01:34:00.583

Скриншоты

[Профиль] [ЛС]
Кто просматривает тему:

Форум Тема Автор Размер
BBC BBC: Мир природы. Секреты подземелий майя / Natural World. Secrets of the Maya Underworld (Тим Мартин) [2005 г., Документальный, природа, флора, фауна, HDTVRip-AVC 720p] skorpionN 1.49 GB
BBC BBC: Помпеи: новые секреты / Pompeii: New Secrets Revealed with Mary Beard (Ian A. Hunt) [2016 г., Документальный, история, исследования, HDTVRip 720p] skorpionN 1.8 GB
BBC BBC: Секреты квантовой физики / The Secrets of Quantum Physics (Тим Усборн) [2014 г., Документальный, физика, HDTVRip 720p] skorpionN 4.43 GB
Discovery Discovery: Секреты и Заговоры / Codes and Conspiracies [сезон 1 серии 1-6 из 6] (Tim Evans) [2014 г., Документальный, исследование, история, SATRip] skorpionN 3.69 GB
Discovery Discovery: Секреты и Заговоры / Codes and Conspiracies [сезон 2 серии 1-6 из 6] (Darryl Rehr) [2015 г., Документальный, исследование, история, SATRip] skorpionN 3.69 GB
Фильмы 2014 года Kingsman: Секретная служба / Kingsman: The Secret Service (2014) HDTVRip | Чистый звук достали все 1.9 GB
Фильмы (HD Rips | 720p, 1080p) Kingsman: Секретная служба / Kingsman: The Secret Service (2014) WEB-DL 720p | iTunes достали все 4.27 GB
R.G.TorrentFilm Video Kingsman: Секретная служба / Kingsman: The Secret Service (Мэттью Вон / Matthew Vaughn) [2014 г., боевик, комедия, криминал, приключения, HDRip] AleksSin 2.79 GB
Показать сообщения:    

Текущее время: Сегодня 18:01

Часовой пояс: GMT



Вы не можете начинать темы
Вы не можете отвечать на сообщения
Вы не можете редактировать свои сообщения
Вы не можете удалять свои сообщения
Вы не можете голосовать в опросах
Вы не можете прикреплять файлы к сообщениям
Вы не можете скачивать файлы