Секреты секса и любви / Kiki, el amor se hace (2016) BDRip 1080p от ExKinoRay | iTunes

 
Автор Сообщение

Russian Mafia ®

Пол:

Стаж: 1 год 8 месяцев

Сообщений: 4253



Награды: 10 (Подробнее)

Mega Seeder 5 (Количество: 1) Mega Seeder 4 (Количество: 1) Top Releaser 4 (Количество: 1)
Торрент-статистика

Создавать темы 16-Окт-2016 05:01

[Цитировать]

Информация о фильме
Название: Секреты секса и любви
Оригинальное название: Kiki, el amor se hace
Год выхода: 2016
Жанр: Комедия
Режиссер: Пако Леон
В ролях: Наталия де Молина, Алекс Гарсия, Джакобо Санчес, Сильвия Рей, Пако Леон, Ана Кац, Белен Куэста, Кандела Пенья, Луис Кальехо
О фильме:
Жарким летом в Мадриде пять пар в томлении страсти открывают для себя весьма неожиданные формы сексуального влечения. Изумление и страх перед неведомыми удовольствиями сменяются неконтролируемым желанием. Табу рушатся, и теперь ничто не в силах удержать героев от любовных экспериментов.

Страна: Испания
Студия: Instituto de la Cinematografía y de las Artes Audiovisuales (ICAA), Telecinco Cinema
Продолжительность: 01:42:05
Перевод: Дублированный | iTunes
Файл
Кодек: MPEG-4
Качество: BDRip 1080p
Видео: 1920x800, 9006 Kbit/s, 24.000 fps
Звук:
Аудио #01: 48 kHz, AC3, 5.1, 384 Kbps | Дублированный | iTunes |
Аудио #02: 48 kHz, AC3, 5.1, 640 kbps | Оригинал |

MI

General
Unique ID : 238639973750535737707060321339540525924 (0xB388631B6FAE98BEA56E7FF3EA7C5364)
Complete name : H:VideoKiki.El.Amor.Se.Hace.2016.BDRip.1080p.ExKinoRay.mkv
Format : Matroska
Format version : Version 4 / Version 2
File size : 7.19 GiB
Duration : 1 h 50 min
Overall bit rate : 9 323 kb/s
Movie name : ***селезень***
Encoded date : UTC 2016-10-16 03:09:25
Writing application : mkvmerge v8.3.0 ('Over the Horizon') 64bit
Writing library : libebml v1.3.1 + libmatroska v1.4.2
Video
ID : 1
Format : AVC
Format/Info : Advanced Video Codec
Format profile : High@L4.1
Format settings, CABAC : Yes
Format settings, ReFrames : 5 frames
Codec ID : V_MPEG4/ISO/AVC
Duration : 1 h 42 min
Bit rate : 9 006 kb/s
Width : 1 920 pixels
Height : 800 pixels
Display aspect ratio : 2.40:1
Frame rate mode : Constant
Frame rate : 24.000 FPS
Color space : YUV
Chroma subsampling : 4:2:0
Bit depth : 8 bits
Scan type : Progressive
Bits/(Pixel*Frame) : 0.244
Stream size : 6.42 GiB (89%)
Title : ***селезень***
Writing library : x264 core 142 r2431+42 c69a006 tMod [8-bit@all X86_64]
Encoding settings : cabac=1 / ref=5 / deblock=1:-3:-3 / analyse=0x3:0x133 / me=umh / subme=11 / psy=1 / fade_compensate=0.00 / psy_rd=0.90:0.00 / mixed_ref=1 / me_range=32 / chroma_me=1 / trellis=2 / 8x8dct=1 / cqm=0 / deadzone=21,11 / fast_pskip=0 / chroma_qp_offset=-2 / threads=42 / lookahead_threads=6 / sliced_threads=0 / nr=0 / decimate=0 / interlaced=0 / bluray_compat=0 / constrained_intra=0 / fgo=0 / bframes=8 / b_pyramid=2 / b_adapt=2 / b_bias=0 / direct=3 / weightb=1 / open_gop=0 / weightp=2 / keyint=240 / keyint_min=24 / scenecut=40 / intra_refresh=0 / rc_lookahead=60 / rc=crf / mbtree=0 / crf=18.0000 / qcomp=0.60 / qpmin=0:0:0 / qpmax=69:69:69 / qpstep=4 / vbv_maxrate=40000 / vbv_bufsize=30000 / crf_max=0.0 / nal_hrd=none / filler=0 / ip_ratio=1.40 / pb_ratio=1.30 / aq=1:0.90 / aq-sensitivity=10.00 / aq-factor=1.00:1.00:1.00 / aq2=0 / aq3=0
Language : Spanish
Default : Yes
Forced : No
Audio #1
ID : 2
Format : AC-3
Format/Info : Audio Coding 3
Mode extension : CM (complete main)
Format settings, Endianness : Big
Codec ID : A_AC3
Duration : 1 h 42 min
Bit rate mode : Constant
Bit rate : 384 kb/s
Channel(s) : 6 channels
Channel positions : Front: L C R, Side: L R, LFE
Sampling rate : 48.0 kHz
Frame rate : 31.250 FPS (1536 spf)
Compression mode : Lossy
Stream size : 280 MiB (4%)
Title : iTunes
Language : Russian
Default : Yes
Forced : No
Audio #2
ID : 3
Format : AC-3
Format/Info : Audio Coding 3
Mode extension : CM (complete main)
Format settings, Endianness : Big
Codec ID : A_AC3
Duration : 1 h 50 min
Bit rate mode : Constant
Bit rate : 640 kb/s
Channel(s) : 6 channels
Channel positions : Front: L C R, Side: L R, LFE
Sampling rate : 48.0 kHz
Frame rate : 31.250 FPS (1536 spf)
Compression mode : Lossy
Stream size : 505 MiB (7%)
Title : Original
Language : Spanish
Default : No
Forced : No
Menu
00:00:00.000 : en:00:00:00.000
00:07:51.667 : en:00:07:51.667
00:13:58.000 : en:00:13:58.000
00:20:19.792 : en:00:20:19.792
00:27:09.750 : en:00:27:09.750
00:34:49.708 : en:00:34:49.708
00:40:58.167 : en:00:40:58.167
00:46:34.458 : en:00:46:34.458
00:55:08.292 : en:00:55:08.292
01:00:57.875 : en:01:00:57.875
01:07:49.875 : en:01:07:49.875
01:14:19.750 : en:01:14:19.750
01:20:49.750 : en:01:20:49.750
01:26:54.542 : en:01:26:54.542
01:34:00.583 : en:01:34:00.583

Релиз от: Автор релиза:
[Профиль] [ЛС]
Кто просматривает тему:

Форум Тема Автор Размер
BBC BBC: Мир природы. Секреты подземелий майя / Natural World. Secrets of the Maya Underworld (Тим Мартин) [2005 г., Документальный, природа, флора, фауна, HDTVRip-AVC 720p] skorpionN 1.49 GB
BBC BBC: Помпеи: новые секреты / Pompeii: New Secrets Revealed with Mary Beard (Ian A. Hunt) [2016 г., Документальный, история, исследования, HDTVRip 720p] skorpionN 1.8 GB
BBC BBC: Секреты квантовой физики / The Secrets of Quantum Physics (Тим Усборн) [2014 г., Документальный, физика, HDTVRip 720p] skorpionN 4.43 GB
Discovery Discovery: Секреты и Заговоры / Codes and Conspiracies [сезон 1 серии 1-6 из 6] (Tim Evans) [2014 г., Документальный, исследование, история, SATRip] skorpionN 3.69 GB
Discovery Discovery: Секреты и Заговоры / Codes and Conspiracies [сезон 2 серии 1-6 из 6] (Darryl Rehr) [2015 г., Документальный, исследование, история, SATRip] skorpionN 3.69 GB
Фильмы 2014 года Kingsman: Секретная служба / Kingsman: The Secret Service (2014) HDTVRip | Чистый звук достали все 1.9 GB
Фильмы (HD Rips | 720p, 1080p) Kingsman: Секретная служба / Kingsman: The Secret Service (2014) WEB-DL 720p | iTunes достали все 4.27 GB
R.G.TorrentFilm Video Kingsman: Секретная служба / Kingsman: The Secret Service (Мэттью Вон / Matthew Vaughn) [2014 г., боевик, комедия, криминал, приключения, HDRip] AleksSin 2.79 GB
Показать сообщения:    

Текущее время: Сегодня 10:50

Часовой пояс: GMT



Вы не можете начинать темы
Вы не можете отвечать на сообщения
Вы не можете редактировать свои сообщения
Вы не можете удалять свои сообщения
Вы не можете голосовать в опросах
Вы не можете прикреплять файлы к сообщениям
Вы не можете скачивать файлы