Секретные операции (2 сезон: 2 серии из 8) / Black Ops 2 (Нед Паркер / Ned Parker) [2014, Документальный, спецслужбы, спецназ, история, HDTVRip 720p]

 
Автор Сообщение

TorrentFilm ®

Пол:

Стаж: 2 года

Сообщений: 7741



Награды: Нет

Торрент-статистика

Создавать темы 05-Апр-2015 00:01

[Цитировать]

Секретные операции (2 сезон: 2 серии из 8) / Black Ops 2
Дата/Год выпуска: 2014
Страна: Великобритания, World Media Rights Productions
Жанр: Документальный, спецслужбы, спецназ, история
Продолжительность: 2 х ~ 00:48:15
Перевод: Студийный (одноголосый закадровый)
Режиссер: Нед Паркер / Ned Parker
Описание: Сериал рассказывает о самых драматичных секретных операциях современной истории, которые проводятся войсками специального назначения, воссоздает реальные события и включает в себя рассказы участников спецзаданий и архивные съемки операций. Когда идет речь о террористах-фанатиках или о непримиримых врагах, бывают моменты, когда выбирать не приходится и власти прибегают к помощи специальных подразделений. Некоторые из них – это британская специальная воздушная служба, «морские котики», израильская «Моссад», а также 10-ая группа специального назначения США. Их деятельность связана с величайшим риском: провал спецоперации означает многочисленные человеческие жертвы и серьезные политические последствия.
Доп. информация: HDTVRip by alf62

качество: HDTVRip 720p
формат: MKV
Видео: MPEG-4 AVC, ~ 2182 Кбит/с, 1280x720
Аудио: AC3, 2 ch, 192 Кбит/с

Список выпусков/серий

1. Удар по Сирии / The Strike on Syria
Враждебная страна пыталась создать атомную бомбу. За этим заговором стоял лидер, который мечтал уничтожить Израиль. С этой угрозой поручили справиться трем элитным спецподразделениям. Израильский спецназ начинает одну из самых выдающихся секретных операций в истории.
4. Осада японского посольства / The Japanese Embassy Siege
Группа до зубов вооруженных террористов захватывает территорию посольства. Вскоре начинается осада. Нападавшие, захватили видных политиков, генералов и множество особо важных персон. Их продержат в плену более 100 дней. Для сил особого назначения, лобовая атака не возможна. Необходимо нечто нестандартное – нападение из под земли. На кону жизни 72 заложников. Это история о том, как перуанские коммандос, положили конец одной из самых продолжительных осад террористов в истории.

MediaInfo

Sekretnye.operacii.S2.2014.720p.hdtv.x264.alf62\Sekretnye.operacii.(S2.Ep1).Udar.po.Sirii.2014.720p.hdtv.x264.alf62.mkvФормат : MatroskaВерсия формата : Version 4 / Version 2Размер файла : 836 МбайтПродолжительность : 48 м.Общий поток : 2422 Кбит/секДата кодирования : UTC 2015-01-21 19:41:55Программа кодирования : mkvmerge v6.6.0 ('The Edge Of The In Between') built on Dec 1 2013 17:55:00Библиотека кодирования : libebml v1.3.0 + libmatroska v1.4.1
ВидеоИдентификатор : 1Формат : AVCФормат/Информация : Advanced Video CodecПрофиль формата : High@L4.1Параметр CABAC формата : ДаПараметр ReFrames формата : 5 кадровИдентификатор кодека : V_MPEG4/ISO/AVCПродолжительность : 48 м.Битрейт : 2182 Кбит/секШирина : 1280 пикселейВысота : 720 пикселейСоотношение сторон : 16:9Режим частоты кадров : ПостоянныйЧастота кадров : 25,000 кадров/секЦветовое пространство : YUVСубдискретизация насыщенности : 4:2:0Битовая глубина : 8 битТип развёртки : ПрогрессивнаяБит/(Пиксели*Кадры) : 0.095Размер потока : 753 Мбайт (90%)Библиотека кодирования : x264 core 142 r2479 dd79a61Настройки программы : cabac=1 / ref=5 / deblock=1:-2:-1 / analyse=0x3:0x113 / me=umh / subme=9 / psy=1 / psy_rd=1.00:0.00 / mixed_ref=1 / me_range=16 / chroma_me=1 / trellis=1 / 8x8dct=1 / cqm=0 / deadzone=21,11 / fast_pskip=1 / chroma_qp_offset=-2 / threads=12 / lookahead_threads=1 / sliced_threads=0 / nr=0 / decimate=1 / interlaced=0 / bluray_compat=0 / constrained_intra=0 / bframes=16 / b_pyramid=2 / b_adapt=1 / b_bias=0 / direct=1 / weightb=1 / open_gop=0 / weightp=2 / keyint=250 / keyint_min=23 / scenecut=40 / intra_refresh=0 / rc_lookahead=40 / rc=crf / mbtree=1 / crf=20.0 / qcomp=0.60 / qpmin=0 / qpmax=69 / qpstep=4 / ip_ratio=1.40 / aq=1:1.00Язык : EnglishDefault : НетForced : Нет
АудиоИдентификатор : 2Формат : AC-3Формат/Информация : Audio Coding 3Расширение режима : CM (complete main)Параметр Endianness формата : BigИдентификатор кодека : A_AC3Продолжительность : 48 м.Вид битрейта : ПостоянныйБитрейт : 192 Кбит/секКаналы : 2 каналаРасположение каналов : Front: L RЧастота : 48,0 КГцБитовая глубина : 16 битМетод сжатия : С потерямиРазмер потока : 66,3 Мбайт (8%)Язык : English
Внимание! Раздача ведётся путём добавления новых серий

скрытый текст

Внимание! Раздача ведётся путём добавления новых серий; при каждом добавлении создаётся новый торрент. Чтобы начать докачку новой серии, пользователям необходимо сделать следующее:
• Остановить скачивание.
• Удалить старый торрент у себя из клиента (старые серии удалять не надо).
• Скачать новый торрент и запустить его у себя в клиенте вместо старого, при этом указать клиенту путь в старую папку куда и должно происходить скачивание новых серий.
Ваш клиент при этом должен произвести хеширование (проверку) старой папки (если не производит сам - помогите ему сделать это), и будет докачивать только те серии которых у вас ещё нет. Старые серии при этом не удаляются, а продолжают раздаваться!
Eсли вы уже удалили старые серии, то предотвратить повторную закачку старых серий можно, отжав галочку в соответсвующих местах при запуске нового торрента. По возможности, желательно не удалять старые серии как можно дольше чтобы релизёр не столько продолжал раздавать старые серии, а смог сконцентрироваться на новых.
[Профиль] [ЛС]
Кто просматривает тему:

Форум Тема Автор Размер
BBC BBC: Мир природы. Секреты подземелий майя / Natural World. Secrets of the Maya Underworld (Тим Мартин) [2005 г., Документальный, природа, флора, фауна, HDTVRip-AVC 720p] skorpionN 1.49 GB
BBC BBC: Помпеи: новые секреты / Pompeii: New Secrets Revealed with Mary Beard (Ian A. Hunt) [2016 г., Документальный, история, исследования, HDTVRip 720p] skorpionN 1.8 GB
BBC BBC: Секреты квантовой физики / The Secrets of Quantum Physics (Тим Усборн) [2014 г., Документальный, физика, HDTVRip 720p] skorpionN 4.43 GB
Discovery Discovery: Секреты и Заговоры / Codes and Conspiracies [сезон 1 серии 1-6 из 6] (Tim Evans) [2014 г., Документальный, исследование, история, SATRip] skorpionN 3.69 GB
Discovery Discovery: Секреты и Заговоры / Codes and Conspiracies [сезон 2 серии 1-6 из 6] (Darryl Rehr) [2015 г., Документальный, исследование, история, SATRip] skorpionN 3.69 GB
Фильмы 2014 года Kingsman: Секретная служба / Kingsman: The Secret Service (2014) HDTVRip | Чистый звук достали все 1.9 GB
Фильмы (HD Rips | 720p, 1080p) Kingsman: Секретная служба / Kingsman: The Secret Service (2014) WEB-DL 720p | iTunes достали все 4.27 GB
R.G.TorrentFilm Video Kingsman: Секретная служба / Kingsman: The Secret Service (Мэттью Вон / Matthew Vaughn) [2014 г., боевик, комедия, криминал, приключения, HDRip] AleksSin 2.79 GB
Показать сообщения:    

Текущее время: Сегодня 14:08

Часовой пояс: GMT



Вы не можете начинать темы
Вы не можете отвечать на сообщения
Вы не можете редактировать свои сообщения
Вы не можете удалять свои сообщения
Вы не можете голосовать в опросах
Вы не можете прикреплять файлы к сообщениям
Вы не можете скачивать файлы