Секретные операции (4 серии из 4) / Discovery: Shadow Ops (Дуг Шульц, Сэм Бенстид, Джонатан Хакер / Doug Schultz, Sam Benstid, Jonathan Hacker) [2012, Документальный сериал, DVB]

 
Автор Сообщение

reversefile ®

Пол:

Стаж: 4 года 5 месяцев

Сообщений: 842

Откуда: ReverseFile.org



Награды: Нет

Торрент-статистика

Создавать темы 24-Июл-2014 17:55

[Цитировать]

Секретные операции (4 серии из 4) / Discovery: Shadow Ops
Год выпуска: 2012
Страна: Великобритания Discovery Channel
Жанр: Документальный сериал
Продолжительность: 4 серии по 44 мин.
Перевод: Одноголосый закадровый
Русские субтитры: нет
Режиссеры: Дуг Шульц, Сэм Бенстид, Джонатан Хакер \ Doug Schultz, Sam Benstid, Jonathan Hacker
Описание:
1 серия: Шпионы в берлинском тоннеле / Spies Beneath Berlin
В разгар холодной войны Великобритания и США осуществили секретную операцию по прослушиванию линий связи Красной Армии. Операция проходила во время холодной войны и до сих пор была окутана слухами и противоречиями. Спустя 60 лет ЦРУ рассекретило файлы. Как же удалось агентам избежать разоблачения? Сегодня 4 шпиона, связанных с одной из гениальнейших операций являются почетными гостями армии США. Операция заключалась в секретном строительстве 500-метрового шпионского тоннеля в Берлине, находившемся под контролем СССР.
2 серия: Ветров помогает уничтожить сети КГБ / Vetrov Helps Wipe Out a KGB Network
Владимир Ветров был главным шпионом КГБ, пока он не предал Советский Союз и стал секретным агентом для Запада. Под кодовым названием "Напутствие", он будет катализатором для уничтожения целой сети агентов КГБ.

Владимир Ветров — убийца и предатель


Владимир Ветров — агент французской разведки.
В 1965 году Владимир Ветров посетил Францию как представитель торгпредства и познакомился с Жаком Прево, ответственным работником фирмы «Томсон ЦСФ», занимавшейся изготовлением электроники. Оказалось, что тот сотрудничает с французской контрразведкой ДСТ, и Ветров стал объектом для вербовки. Когда Ветров в нетрезвом состоянии разбил служебный автомобиль, он, желая избежать разбирательств в посольстве, обращается за помощью к новому французскому другу. Прево ему помог, но предупредил контрразведку, что теперь Ветрову есть что скрывать. Тогда сотрудничества не сложилось, поскольку командировка у Ветрова закончилась. Вспомнил о своём французском друге советский гражданин в 1981 году. В то время он работал в управлении «Т» ПГУ КГБ, занимавшемся анализом научно-технической информации, поступавшей из-за границы.
За 2 года агент «Farewell», такая кличка была присвоена Ветрову в ДСТ, передал на Запад 4 тыс. секретных документов, в том числе полный официальный список из 250 офицеров Линии X, размещённых под видом дипломатов по всему миру. Также он раскрыл имена 450 сотрудников советской разведки, которые занимались сбором научно-технической информации.
Владимир Ветров. Фото из уголовного дела.
В феврале 1982 года, будучи в алкогольном опьянении, Ветров убил сотрудника КГБ. Трибунал признал его виновным в умышленном убийстве и приговорил к 15 годам колонии строгого режима с лишением наград и воинского звания. Но через 2 года Ветрова переводят в Лефортовскую тюрьму (Москва) и предъявляют обвинения в измене Родине. Приговор суда — смертная казнь был приведён в исполнение 23 февраля 1985 года.
3 серия: Побег из Москвы / Escape from Moscow
Полковник КГБ превратился в двойного агента. Олег Гордиевский более десяти лет шпионил в пользу спецслужб Великобритании, МИ-6. Теперь он разыскивается по обвинению в измене Родине
4 серия: Шпион против шпиона / Spy vs Spy
На самом деле этого человека хорошо знали, и не только в Москве. Скажем, работники советского посольства в столице Колумбии Боготе знали его как второго секретаря посольства Александра Огородника, сотрудники КГБ зарегистрировали его сперва под псевдонимом Дмитриев, а несколько позже как Агронома, а вот вербовщики из ЦРУ окрестили его Трианоном, то есть трижды неизвестным.
РАЗДАЧА ВЕДЕТСЯ ПУТЕМ ДОБАВЛЕНИЯ НОВЫХ СЕРИЙ!!!
Сэмпл: http://multi-up.com/941263
качество: DVB
формат: TS/M2TS
Видео: AVC, аноморф. 720х576, 4:3, 1227 Кбит/сек, 25 fps
Аудио-1(Rus): MPEG Audio, 160 Кбит/сек, 48 КГц, 2 канала
Аудио-2 (Eng): MPEG Audio, 160 Кбит/сек, 48 КГц, 2 канала

Список выпусков/серий

1 серия:
Шпионы в берлинском тоннеле / Spies Beneath Berlin
2 серия:
Ветров помогает уничтожить сети КГБ / Vetrov Helps Wipe Out a KGB Network
3 серия:
Побег из Москвы / Escape from Moscow
4 серия:
Шпион против шпиона / Spy vs Spy

MediaInfo

Общее
Идентификатор : 16 (0x10)
Полное имя : Shadow OPS Reagan's Secret Weapon.ts
Формат : MPEG-TS
Размер файла : 515 Мбайт
Продолжительность : 44 м.
Режим общего битрейта : Переменный
Общий поток : 1631 Кбит/сек
Видео
Идентификатор : 1407 (0x57F)
Идентификатор меню : 407 (0x197)
Формат : AVC
Формат/Информация : Advanced Video Codec
Профиль формата : Main@L3.0
Параметр CABAC формата : Да
Параметр ReFrames формата : 3 кадра
Идентификатор кодека : 27
Продолжительность : 44 м.
Битрейт : 1227 Кбит/сек
Ширина : 720 пикселей
Высота : 576 пикселей
Соотношение сторон : 4:3
Частота кадров : 25,000 кадров/сек
Стандарт вещания : PAL
Цветовое пространство : YUV
Субдискретизация насыщенности : 4:2:0
Битовая глубина : 8 бит
Тип развёртки : Чересстрочная
Порядок развёртки : Верхнее поле первое
Бит/(Пиксели*Кадры) : 0.118
Размер потока : 387 Мбайт (75%)
Основные цвета : BT.601 PAL
Характеристики трансфера : BT.470 System B, BT.470 System G
Коэффициенты матрицы : BT.601
Аудио #1
Идентификатор : 2407 (0x967)
Идентификатор меню : 407 (0x197)
Формат : MPEG Audio
Версия формата : Version 1
Профиль формата : Layer 2
Идентификатор кодека : 4
Продолжительность : 44 м.
Вид битрейта : Постоянный
Битрейт : 160 Кбит/сек
Каналы : 2 канала
Частота : 48,0 КГц
Метод сжатия : С потерями
Задержка видео : 70 мс.
Размер потока : 50,5 Мбайт (10%)
Язык : std
Язык, дополнительно : Clean effects
Аудио #2
Идентификатор : 3407 (0xD4F)
Идентификатор меню : 407 (0x197)
Формат : MPEG Audio
Версия формата : Version 1
Профиль формата : Layer 2
Идентификатор кодека : 4
Продолжительность : 44 м.
Вид битрейта : Постоянный
Битрейт : 160 Кбит/сек
Каналы : 2 канала
Частота : 48,0 КГц
Метод сжатия : С потерями
Задержка видео : 94 мс.
Размер потока : 50,5 Мбайт (10%)
Язык : English
Язык, дополнительно : Clean effects

Скриншоты

[Профиль] [ЛС]
Кто просматривает тему:

Форум Тема Автор Размер
BBC BBC: Мир природы. Секреты подземелий майя / Natural World. Secrets of the Maya Underworld (Тим Мартин) [2005 г., Документальный, природа, флора, фауна, HDTVRip-AVC 720p] skorpionN 1.49 GB
BBC BBC: Помпеи: новые секреты / Pompeii: New Secrets Revealed with Mary Beard (Ian A. Hunt) [2016 г., Документальный, история, исследования, HDTVRip 720p] skorpionN 1.8 GB
BBC BBC: Секреты квантовой физики / The Secrets of Quantum Physics (Тим Усборн) [2014 г., Документальный, физика, HDTVRip 720p] skorpionN 4.43 GB
Discovery Discovery: Секреты и Заговоры / Codes and Conspiracies [сезон 1 серии 1-6 из 6] (Tim Evans) [2014 г., Документальный, исследование, история, SATRip] skorpionN 3.69 GB
Discovery Discovery: Секреты и Заговоры / Codes and Conspiracies [сезон 2 серии 1-6 из 6] (Darryl Rehr) [2015 г., Документальный, исследование, история, SATRip] skorpionN 3.69 GB
Фильмы 2014 года Kingsman: Секретная служба / Kingsman: The Secret Service (2014) HDTVRip | Чистый звук достали все 1.9 GB
Фильмы (HD Rips | 720p, 1080p) Kingsman: Секретная служба / Kingsman: The Secret Service (2014) WEB-DL 720p | iTunes достали все 4.27 GB
R.G.TorrentFilm Video Kingsman: Секретная служба / Kingsman: The Secret Service (Мэттью Вон / Matthew Vaughn) [2014 г., боевик, комедия, криминал, приключения, HDRip] AleksSin 2.79 GB
Показать сообщения:    

Текущее время: Сегодня 12:43

Часовой пояс: GMT



Вы не можете начинать темы
Вы не можете отвечать на сообщения
Вы не можете редактировать свои сообщения
Вы не можете удалять свои сообщения
Вы не можете голосовать в опросах
Вы не можете прикреплять файлы к сообщениям
Вы не можете скачивать файлы