Секретные материалы: Хочу верить / The X-Files: I Want to Believe (Крис Картер / Chris Carter) [2008, США, Канада, триллер, драма, HDTVRip] Dub

 
Автор Сообщение

reversefile ®

Пол:

Стаж: 4 года 5 месяцев

Сообщений: 842

Откуда: ReverseFile.org



Награды: Нет

Торрент-статистика

Создавать темы 11-Авг-2014 10:46

[Цитировать]

Секретные материалы: Хочу верить / The X-Files: I Want to Believe
Страна: США, Канада
Жанр: триллер, драма
Год выпуска: 2008
Продолжительность: 01:35:54
Перевод: Профессиональный (дублированный)
Cубтитры: нет
Оригинальная аудиодорожка: нет
Режиссер: Крис Картер / Chris Carter
В ролях: Дэвид Духовны, Джиллиан Андерсон, Аманда Пит, Билли Коннолли, Иксзибит, Митч Пилледжи, Каллум Кит Ренни, Адам Годли, Алекс Дьякун, Никки Эйкокс, Фагин Вудкок, Марко Никколи, Кэрри Ручински, Спенсер Мэйби, Вероника Хадрава, Дэннис Крассноголов, Патрик Китинг, Роджер Хорчоу, Стивен Е. Миллер, Ксанта Рэдли, Лорена Гэйл, Донаван Стинсон, Дайон Джонстоун, Сара-Джейн Редмонд, Кристина Д’Алимонте, Ванеса Томасино, Лувия Петерсен, Бабс Чула, Марси Т. Хаус, Джозеф Патрик Финн, Бет Сиглер, Стэйси Коуплэнд, Том Чаррон
Описание: Пропадает без вести сотрудница ФБР, и последней надеждой её коллег становятся Фокс Малдер и Дана Скалли, бывшие специальные агенты, вынужденно, хотя и по разным причинам, оставившие службу. Единственным человеком, дающим следствию хоть какую-то информацию, является престарелый Джозеф Криссман, в прошлом священник, отбывший наказание за совращение малолетних, который уверяет, что картины совершённых преступлений непроизвольно — «по воле Бога» — возникают в его сознании…
Доп. информация: HDTV имеет иное наполнение кадра, чем DVD и BD - http://screenshotcomparison.com/comparison/74067
Сэмпл: http://multi-up.com/972890
Качество видео: HDTVRip
Формат видео: AVI
Видео: MPEG4, XviD, 720x400 (16/9), 25.000 fps, 1 842 Kbps (0.256 bit/pixel)
Аудио: AC-3, 48.0 KHz, 2 ch, 192 Kbps, CBR

MediaInfo

Общее
Полное имя : K:\Секретные материалы. Хочу верить.avi
Формат : AVI
Формат/Информация : Audio Video Interleave
Размер файла : 1,37 Гбайт
Продолжительность : 1 ч. 35 м.
Общий поток : 2044 Кбит/сек
Название фильма : Секретные материалы: Хочу верить / The X Files: I Want to Believe (2008)
Программа кодирования : VirtualDubMod 1.5.10.2 (build 2540/release)
Библиотека кодирования : VirtualDubMod build 2540/release
Правообладатель : miha2154
Видео
Идентификатор : 0
Формат : MPEG-4 Visual
Профиль формата : Advanced Simple@L5
Параметр BVOP формата : 2
Параметр QPel формата : Нет
Параметр GMC формата : Без точки перехода
Параметр матрицы формата : Default (MPEG)
Идентификатор кодека : XVID
Идентификатор кодека/Подсказка : XviD
Продолжительность : 1 ч. 35 м.
Битрейт : 1842 Кбит/сек
Ширина : 720 пикселей
Высота : 400 пикселей
Соотношение сторон : 16:9
Частота кадров : 25,000 кадров/сек
Цветовое пространство : YUV
Субдискретизация насыщенности : 4:2:0
Битовая глубина : 8 бит
Тип развёртки : Прогрессивная
Метод сжатия : С потерями
Бит/(Пиксели*Кадры) : 0.256
Размер потока : 1,23 Гбайт (90%)
Библиотека кодирования : XviD 1.1.0 (UTC 2005-11-22)
Аудио
Идентификатор : 1
Формат : AC-3
Формат/Информация : Audio Coding 3
Расширение режима : CM (complete main)
Параметр Endianness формата : Big
Идентификатор кодека : 2000
Продолжительность : 1 ч. 35 м.
Вид битрейта : Постоянный
Битрейт : 192 Кбит/сек
Каналы : 2 канала
Расположение каналов : Front: L R
Частота : 48,0 КГц
Битовая глубина : 16 бит
Метод сжатия : С потерями
Размер потока : 132 Мбайт (9%)
Выравнивание : Разделение по промежуткам
Продолжительность промежутка : 40 мс. (1,00 видеокадр)
Время предзагрузки промежутка : 500 мс.

Скриншоты

[Профиль] [ЛС]

Создавать темы 06-Авг-2015 23:20 (спустя 11 месяцев 26 дней)

Топик был перенесен из форума Фильмы до 2014 года в форум Фильмы до 2012 года
sergej644
 

Создавать темы 12-Июн-2016 08:50 (спустя 1 год 10 месяцев)

Топик был перенесен из форума Фильмы 2011 года в форум Фильмы 2006-2008 года
Russian Mafia
 
Кто просматривает тему:

Форум Тема Автор Размер
BBC BBC: Мир природы. Секреты подземелий майя / Natural World. Secrets of the Maya Underworld (Тим Мартин) [2005 г., Документальный, природа, флора, фауна, HDTVRip-AVC 720p] skorpionN 1.49 GB
BBC BBC: Помпеи: новые секреты / Pompeii: New Secrets Revealed with Mary Beard (Ian A. Hunt) [2016 г., Документальный, история, исследования, HDTVRip 720p] skorpionN 1.8 GB
BBC BBC: Секреты квантовой физики / The Secrets of Quantum Physics (Тим Усборн) [2014 г., Документальный, физика, HDTVRip 720p] skorpionN 4.43 GB
Discovery Discovery: Секреты и Заговоры / Codes and Conspiracies [сезон 1 серии 1-6 из 6] (Tim Evans) [2014 г., Документальный, исследование, история, SATRip] skorpionN 3.69 GB
Discovery Discovery: Секреты и Заговоры / Codes and Conspiracies [сезон 2 серии 1-6 из 6] (Darryl Rehr) [2015 г., Документальный, исследование, история, SATRip] skorpionN 3.69 GB
Фильмы 2014 года Kingsman: Секретная служба / Kingsman: The Secret Service (2014) HDTVRip | Чистый звук достали все 1.9 GB
Фильмы (HD Rips | 720p, 1080p) Kingsman: Секретная служба / Kingsman: The Secret Service (2014) WEB-DL 720p | iTunes достали все 4.27 GB
R.G.TorrentFilm Video Kingsman: Секретная служба / Kingsman: The Secret Service (Мэттью Вон / Matthew Vaughn) [2014 г., боевик, комедия, криминал, приключения, HDRip] AleksSin 2.79 GB
Показать сообщения:    

Текущее время: Сегодня 08:31

Часовой пояс: GMT



Вы не можете начинать темы
Вы не можете отвечать на сообщения
Вы не можете редактировать свои сообщения
Вы не можете удалять свои сообщения
Вы не можете голосовать в опросах
Вы не можете прикреплять файлы к сообщениям
Вы не можете скачивать файлы