Сезон охоты 4: Страшно глупо / Open Season: Scared Silly (2015) HDRip | iTunes

 
Автор Сообщение

BOSS ®

Пол:

Стаж: 2 года 1 месяц

Сообщений: 3735

Откуда: ODESSA



Награды: 20 (Подробнее)

Mega Seeder 3 (Количество: 1) Mega Releaser 2 (Количество: 1) Mega Releaser 1 (Количество: 1)
Торрент-статистика

Создавать темы 14-Июн-2016 17:24

[Цитировать]

Информация о фильме
Название: Сезон охоты 4: Страшно глупо
Оригинальное название: Open Season: Scared Silly
Год выхода: 2015
Жанр: Мультфильм, комедия, приключения, семейный
Режиссер: Дэвид Фейсс
В ролях: Уилльям Таунсенд, Мелисса Штурм, Тревор Дивэлл, Гари Чок, Брайан Драммонд, Кэтлин Барр, Шеннон Чан-Кент, Мишель Мурдокка, Питер Келамис, Мэттью В. Тейлор
О фильме:
Олень Эллиот, такса Сосиска и их друзья сговариваются отучить медведя Буга бояться всего на свете. Услышав у ночного костра байку про Свирепого Волка-Оборотня, могучий гризли совсем потерял покой и стал вести себя как трусливая мышь. Из-за этого у компании срываются классные каникулы. Чтобы «спугнуть» напрасные медвежьи страхи, Эллиот и Сосиска снаряжают экспедицию в Тёмный Лес, открывая на его самого загадочного обитателя… свой сезон охоты. Но все прошлые приключения меркнут по сравнению с тем, что ждёт лесную команду в этот раз. Головокружительные погони, уморительные шутки и крутые сюжетные повороты — в первой мульт-комедии лета.

Страна: США
Студия: Sony Pictures Animation
Продолжительность: 01:24:45
Перевод: Профессиональный (полное дублирование)[iTunes]
Файл
Качество: HDRip
Кодек: XviD
Видео: 720x400 (16:9), 23,976 fps, Xvid ~1916 kbps avg, 0.277 bit/pixel
Звук: 48 kHz, AC3, 6 ch, ~384.00 kbps avg | русский | Профессиональный (полное дублирование)[iTunes]
Субтитры: отсутствуют
Семпл

Инфо-файл

Общее
Полное имя : Ce30H.0x0ty.ba1ki.i3.LeCa.2015.D.HDRip.14OOMB.avi
Формат : AVI
Формат/Информация : Audio Video Interleave
Размер файла : 1,37 Гбайт
Продолжительность : 1 ч. 24 м.
Общий поток : 2309 Кбит/сек
Название фильма : Ce30H.0x0ty.ba1ki.i3.LeCa.2015.D.HDRip.14OOMB
Программа кодирования : VirtualDubMod 1.5.10.2 (build 2540/release)
Формат оригинала/Имя : Movie
Видео
Идентификатор : 0
Формат : MPEG-4 Visual
Профиль формата : Advanced Simple@L5
Параметр BVOP формата : 2
Параметр QPel формата : Нет
Параметр GMC формата : Без точки перехода
Параметр матрицы формата : Default (MPEG)
Идентификатор кодека : XVID
Идентификатор кодека/Подсказка : XviD
Продолжительность : 1 ч. 24 м.
Битрейт : 1916 Кбит/сек
Ширина : 720 пикселей
Высота : 400 пикселей
Соотношение сторон : 16:9
Частота кадров : 23,976 (24000/1001) кадра/сек
Цветовое пространство : YUV
Субдискретизация насыщенности : 4:2:0
Битовая глубина : 8 бит
Тип развёртки : Прогрессивная
Метод сжатия : С потерями
Бит/(Пиксели*Кадры) : 0.277
Размер потока : 1,13 Гбайт (83%)
Библиотека кодирования : XviD 1.2.1 (UTC 2008-12-04)
Аудио
Идентификатор : 1
Формат : AC-3
Формат/Информация : Audio Coding 3
Расширение режима : CM (complete main)
Параметр Endianness формата : Big
Идентификатор кодека : 2000
Продолжительность : 1 ч. 24 м.
Вид битрейта : Постоянный
Битрейт : 384 Кбит/сек
Каналы : 6 каналов
Расположение каналов : Front: L C R, Side: L R, LFE
Частота : 48,0 КГц
Частота кадров : 31,250 кадров/сек (1536 spf)
Метод сжатия : С потерями
Размер потока : 233 Мбайт (17%)
Выравнивание : Разделение по промежуткам
Продолжительность промежутка : 42 мс. (1,00 видеокадр)
Время предзагрузки промежутка : 500 мс.

Скриншоты

[Профиль] [ЛС]
Кто просматривает тему:

Форум Тема Автор Размер
Зарубежные сериалы 24 часа: Проживи еще один день / 24: Live Another Day / 9 сезон / 1-12 серия из 12 (Джон Кассар) [2014 г., триллер, детектив, WEB-DLRip] E.S.P. 8.48 GB
365 365: Тайны истории / Secrets d'Histoire [сезон 4 выпуски 2,4 из 7] (Жан-Кристоф де Ревьер / Jean-Christophe de Revière) [2011 г., Документальный, история, научно-популярный, SATRip] skorpionN 2.74 GB
365 365: Тайны истории / Secrets d'Histoire [сезон 6 выпуски 2-4,7,12 из 12] (Жан-Кристоф де Ревьер / Jean-Christophe de Revière) [2012 г., Документальный, история, научно-популярный, SATRip] skorpionN 6.49 GB
365 365: Тайны истории / Secrets d'Histoire [сезон 7 выпуск 1,4,8,9 из 14] (Жан-Кристоф де Ревьер / Jean-Christophe de Revière) [2013 г., Документальный, история, научно-популярный, SATRip] skorpionN 5.21 GB
365 365: Тайны истории / Secrets d'Histoire [сезон 8 выпуски 3,12,14-16 из 16] (Жан-Кристоф де Ревьер / Jean-Christophe de Revière) [2014 г., Документальный, история, научно-популярный, SATRip] skorpionN 7.33 GB
Animal Planet Animal Planet: Земля динозавров / When Dinosaurs Ruled (Jurassica) [сезон 1 серии 1-5 из 5] (Тони Митчелл, Саймон Ллойд, Дэвид Тибблс) [1999 г., Документальный, научно-познавательный, и... skorpionN 7.34 GB
Animal Planet Animal Planet: Самые опасные змеи с Найджелом Марвином / Ten Deadliest Snakes with Nigel Marven [сезон 1 серии 1-4 из 4] (Алекс Минтон) [2014 г., Документальный, природа, флора, фауна, HDTVRip 720p] skorpionN 6.33 GB
Документальные HD BBC. Чудо животного мира / Wonder of Animals / Сезон: 1 / Серии: 1-5 из 12 (Крис Пэкэм) [2014, Документальный, природа, фауна, HDTVRip 720p] TorrentFilm 3.52 GB
Показать сообщения:    

Текущее время: Сегодня 14:27

Часовой пояс: GMT



Вы не можете начинать темы
Вы не можете отвечать на сообщения
Вы не можете редактировать свои сообщения
Вы не можете удалять свои сообщения
Вы не можете голосовать в опросах
Вы не можете прикреплять файлы к сообщениям
Вы не можете скачивать файлы