Седьмой сын / Seventh Son (Сергей Бодров ст) [2014 г., Фэнтези, приключения, HDRip] Лицензия

 
Автор Сообщение

AleksSin ®

Пол:

Стаж: 6 лет

Сообщений: 218



Награды: 4 (Подробнее)

Mega Seeder 3 (Количество: 1) Mega Seeder 2 (Количество: 1) Mega Seeder 4 (Количество: 1)
Торрент-статистика

Создавать темы 22-Апр-2015 11:40

[Цитировать]

Седьмой сын / Seventh Son
Год выпуска: 2014
Страна: Великобритания, США, Канада, Китай
Жанр: Фэнтези, приключения
Продолжительность: 01:42:00
Перевод: Профессиональный (полное дублирование) Лицензия
Субтитры: нет
Режиссер: Сергей Бодров ст
В ролях: Бен Барнс, Джефф Бриджес, Джулианна Мур, Алисия Викандер, Антье Трауэ, Оливия Уильямс, Джон ДеСантис, Кит Харингтон, Джимон Хонсу, Джерард Планкет, Джейсон Скотт Ли, Кэндис МакКлюр, Люк Родерик, Заф Пару, Тимоти Уэббер, Лайла Фицджералд, Марсель Жани, Либби Ослер, Примо Аллон, Тая Клайн
Описание: Рассказ в фильме пойдет про парня, который, так уж вышло, стал седьмым сыном седьмого сына. А только такой человек может стать ведьмаком. Но этого недостаточно, чтобы именовать себя так — необходимо пройти массу тренировок, а также усердно учиться. Ведь главное оружие ведьмака — это его ум. Хоть в народе их не любят, но кто-то же обязан убивать нечисть, хранить землю от сил зла и делать всю грязную работу? Юный Том Уорд попробует стать тем самым учеником ведьмака.

Качество: HDRip (Исх. BDRip 720p)
Формат: AVI
Видео кодек: XviD
Аудио кодек: МР3
Видео: 688x288 (2.39:1), 23.976 fps, XviD build 73 ~892 kbps avg, 0.19 bit/pixel
Аудио: 48 kHz, MPEG Layer 3, 2 ch, ~128.00 kbps avg

MediaInfo

Общее
Полное имя : S:ФильмыСедьмой сын . 2014. HDRip. (AleksSin).avi
Формат : AVI
Формат/Информация : Audio Video Interleave
Размер файла : 751 Мбайт
Продолжительность : 1 ч. 41 м.
Общий поток : 1029 Кбит/сек
Программа кодирования : VirtualDubMod 1.5.10.3 | www.virtualdub-fr.org || (build 2550/release)
Библиотека кодирования : VirtualDubMod build 2550/release
Видео
Идентификатор : 0
Формат : MPEG-4 Visual
Профиль формата : Advanced Simple@L5
Параметр BVOP формата : 1
Параметр QPel формата : Нет
Параметр GMC формата : Без точки перехода
Параметр матрицы формата : Выборочная
Идентификатор кодека : XVID
Идентификатор кодека/Подсказка : XviD
Продолжительность : 1 ч. 41 м.
Битрейт : 892 Кбит/сек
Ширина : 688 пикс.
Высота : 288 пикс.
Соотношение сторон : 2,40:1
Частота кадров : 23,976 кадр/сек
Цветовое пространство : YUV
Подвыборка цветности : 4:2:0
Битовая глубина : 8 бит
Тип развёртки : Прогрессивная
Метод сжатия : С потерями
Бит/(Пиксели*Кадры) : 0.188
Размер потока : 651 Мбайт (87%)
Библиотека кодирования : XviD 73
Аудио
Идентификатор : 1
Формат : MPEG Audio
Версия формата : Version 1
Профиль формата : Layer 3
Идентификатор кодека : 55
Идентификатор кодека/Подсказка : MP3
Продолжительность : 1 ч. 41 м.
Вид битрейта : Постоянный
Битрейт : 128 Кбит/сек
Каналы : 2 канала
Частота : 48,0 КГц
Метод сжатия : С потерями
Размер потока : 93,4 Мбайт (12%)
Выравнивание : Соединение по промежуткам
Продолжительность промежутка : 42 мс. (1,00 видеокадр)
Время предзагрузки промежутка : 504 ms
Библиотека кодирования : LAME3.99r
Настройки программы : -m s -V 4 -q 2 -lowpass 17 -b 128

Скриншоты

[Профиль] [ЛС]
Кто просматривает тему:

Форум Тема Автор Размер
Chanson (Шансон) VA - Опасные Связи (Выпуск Седьмой) - 2015, MP3, 256 kbps Magnat 726 MB
National Geographic NG: Седьмой континент: Антарктида / Continent 7: Antarctica [сезон 1 серии 1-2 из 6] (Todd Hermann) [2016 г., Документальный, научно-популярный, ислледования, HDTVRip 720p] skorpionN 3.37 GB
XXXI Летние Олимпийские игры. Рио-де-Жанейро 2016 (Бразилия) XXXI Летние Олимпийские Игры. Рио-де-Жанейро (Бразилия). Легкая атлетика. Седьмой день. Вечер [18.08] (2016) HDTV 1080i ODESSA 11.47 GB
XXXI Летние Олимпийские игры. Рио-де-Жанейро 2016 (Бразилия) XXXI Летние Олимпийские Игры. Рио-де-Жанейро (Бразилия). Легкая атлетика. Седьмой день. Утро [18.08] (2016) HDTV 1080i BOSS 13.13 GB
Боевики, детективы, триллеры Акунин Борис - Смерть на брудершафт. Фильма седьмая. «Мария», Мария... [Сергей Чонишвили, 2012 г., 256 kbps, MP3] sergej644 201 MB
Фильмы 2015 года Номер семь / Седьмой / Boy 7 (Лауренс Блок / Lourens Blok) [2015, Нидерланды, Венгрия, фантастика, боевик, триллер, HDRip-AVC] VO + Original (Dut) + Sub (Eng, Dut) TorrentFilm 1.45 GB
Фильмы (DVD 5/9) Седьмая жертва (Марк Горобец) [2010, Россия, мелодрама, криминал, DVD9] R5 Original Rus TorrentFilm 5.74 GB
R.G.TorrentFilm Video Седьмая мишень / La 7eme cible (Клод Пиното) [1984 г., триллер, драма, мелодрама, HDRip] [DUB, DVO] Bathory 2.05 GB
Показать сообщения:    

Текущее время: Сегодня 04:47

Часовой пояс: GMT



Вы не можете начинать темы
Вы не можете отвечать на сообщения
Вы не можете редактировать свои сообщения
Вы не можете удалять свои сообщения
Вы не можете голосовать в опросах
Вы не можете прикреплять файлы к сообщениям
Вы не можете скачивать файлы