Седьмой сын / Seventh Son (2014) WEB-DL 720p | iTunes

 
Автор Сообщение

достали все ®

Пол:

Стаж: 1 год 8 месяцев

Сообщений: 6554



Награды: 12 (Подробнее)

Top Releaser 2 (Количество: 1) Mega Seeder 2 (Количество: 1) За внесенный вклад в развитие сайта (Количество: 1)
Торрент-статистика

Создавать темы 06-Апр-2015 03:04

[Цитировать]

Седьмой сын / Seventh Son (2014)
Информация о фильме
Название: Седьмой сын
Оригинальное название: Seventh Son
Год выхода: 2014
Жанр: фэнтези, приключения
Режиссер: Сергей Бодров
В ролях: Бен Барнс, Джефф Бриджес, Джулианна Мур, Алисия Викандер, Кит Харингтон, Джимон Хонсу, Оливия Уильямс, Антье Трауэ, Джейсон Скотт Ли, Дэвид Кабитт
О фильме: Рассказ в фильме пойдет про парня, который, так уж вышло, стал седьмым сыном седьмого сына. А только такой человек может стать ведьмаком. Но этого недостаточно, чтобы именовать себя так — необходимо пройти массу тренировок, а также усердно учиться. Ведь главное оружие ведьмака — это его ум. Хоть в народе их не любят, но кто-то же обязан убивать нечисть, хранить землю от сил зла и делать всю грязную работу? Юный Том Уорд попробует стать тем самым учеником ведьмака.

Выпущено: Великобритания, США, Канада, Китай / Legendary Pictures, Moving Picture Company
Продолжительность: 01:42:01
Озвучивание: Дублированное [iTunes]
Файл
Формат: MKV
Качество: WEB-DL 720p
Видео: 3999 Kb/s, 1280x532
Аудио: Russian: AC3, 384 Kb/s (6 ch)

MI

Format : Matroska
Format version : Version 2
File size : 3.19 GiB
Duration : 1h 42mn
Overall bit rate : 4 472 Kbps
Encoded date : UTC 2015-04-05 19:07:34
Writing application : mkvmerge v7.8.0 ('River Man') 64bit built on Mar 27 2015 16:31:37
Writing library : libebml v1.3.1 + libmatroska v1.4.2
DURATION : 01:42:01.120000000
NUMBER_OF_FRAMES : 191285
NUMBER_OF_BYTES : 293813760
_STATISTICS_WRITING_APP : mkvmerge v7.8.0 ('River Man') 64bit built on Mar 27 2015 16:31:37
_STATISTICS_WRITING_DATE_UTC : 2015-04-05 19:07:34
_STATISTICS_TAGS : BPS DURATION NUMBER_OF_FRAMES NUMBER_OF_BYTES
Video
ID : 1
Format : AVC
Format/Info : Advanced Video Codec
Format profile : Main@L3.1
Format settings, CABAC : No
Format settings, ReFrames : 2 frames
Codec ID : V_MPEG4/ISO/AVC
Duration : 1h 42mn
Bit rate : 3 999 Kbps
Width : 1 280 pixels
Height : 532 pixels
Display aspect ratio : 2.40:1
Frame rate : 23.976 fps
Color space : YUV
Chroma subsampling : 4:2:0
Bit depth : 8 bits
Scan type : Progressive
Bits/(Pixel*Frame) : 0.245
Stream size : 2.85 GiB (89%)
Language : English
Default : Yes
Forced : No
Color primaries : BT.709-5, BT.1361, IEC 61966-2-4, SMPTE RP177
Transfer characteristics : BT.709-5, BT.1361
Matrix coefficients : BT.709-5, BT.1361, IEC 61966-2-4 709, SMPTE RP177
Audio
ID : 2
Format : AC-3
Format/Info : Audio Coding 3
Mode extension : CM (complete main)
Format settings, Endianness : Big
Codec ID : A_AC3
Duration : 1h 42mn
Bit rate mode : Constant
Bit rate : 384 Kbps
Channel(s) : 6 channels
Channel positions : Front: L C R, Side: L R, LFE
Sampling rate : 48.0 KHz
Bit depth : 16 bits
Compression mode : Lossy
Stream size : 280 MiB (9%)
Language : Russian
Default : Yes
Forced : No
Menu
00:00:00.000 : en:глава 1
00:04:52.000 : en:глава 2
00:10:30.000 : en:глава 3
00:16:42.000 : en:глава 4
00:22:42.000 : en:глава 5
00:27:42.000 : en:глава 6
00:30:19.000 : en:глава 7
00:36:47.000 : en:глава 8
00:42:39.000 : en:глава 9
00:49:56.000 : en:глава 10
00:54:46.000 : en:глава 11
00:57:50.000 : en:глава 12
01:02:55.000 : en:глава 13
01:06:55.000 : en:глава 14
01:11:31.000 : en:глава 15
01:18:38.000 : en:глава 16
01:22:12.000 : en:глава 17
01:25:34.000 : en:глава 18
01:30:16.000 : en:глава 19
01:33:22.000 : en:глава 20

Скриншоты



[Профиль] [ЛС]
Кто просматривает тему:

Форум Тема Автор Размер
Chanson (Шансон) VA - Опасные Связи (Выпуск Седьмой) - 2015, MP3, 256 kbps Magnat 726 MB
National Geographic NG: Седьмой континент: Антарктида / Continent 7: Antarctica [сезон 1 серии 1-2 из 6] (Todd Hermann) [2016 г., Документальный, научно-популярный, ислледования, HDTVRip 720p] skorpionN 3.37 GB
XXXI Летние Олимпийские игры. Рио-де-Жанейро 2016 (Бразилия) XXXI Летние Олимпийские Игры. Рио-де-Жанейро (Бразилия). Легкая атлетика. Седьмой день. Вечер [18.08] (2016) HDTV 1080i ODESSA 11.47 GB
XXXI Летние Олимпийские игры. Рио-де-Жанейро 2016 (Бразилия) XXXI Летние Олимпийские Игры. Рио-де-Жанейро (Бразилия). Легкая атлетика. Седьмой день. Утро [18.08] (2016) HDTV 1080i BOSS 13.13 GB
Боевики, детективы, триллеры Акунин Борис - Смерть на брудершафт. Фильма седьмая. «Мария», Мария... [Сергей Чонишвили, 2012 г., 256 kbps, MP3] sergej644 201 MB
Фильмы 2015 года Номер семь / Седьмой / Boy 7 (Лауренс Блок / Lourens Blok) [2015, Нидерланды, Венгрия, фантастика, боевик, триллер, HDRip-AVC] VO + Original (Dut) + Sub (Eng, Dut) TorrentFilm 1.45 GB
Фильмы (DVD 5/9) Седьмая жертва (Марк Горобец) [2010, Россия, мелодрама, криминал, DVD9] R5 Original Rus TorrentFilm 5.74 GB
R.G.TorrentFilm Video Седьмая мишень / La 7eme cible (Клод Пиното) [1984 г., триллер, драма, мелодрама, HDRip] [DUB, DVO] Bathory 2.05 GB
Показать сообщения:    

Текущее время: Сегодня 08:50

Часовой пояс: GMT



Вы не можете начинать темы
Вы не можете отвечать на сообщения
Вы не можете редактировать свои сообщения
Вы не можете удалять свои сообщения
Вы не можете голосовать в опросах
Вы не можете прикреплять файлы к сообщениям
Вы не можете скачивать файлы