Седьмой сын в 3Д / Seventh Son 3D (Сергей Бодров ст. / Sergey Bodrov) [2014, Фэнтези, Приключения, BDrip-AVC] Half OverUnder / Вертикальная анаморфная стереопара

 
Автор Сообщение

TorrentFilm ®

Пол:

Стаж: 2 года

Сообщений: 7741



Награды: Нет

Торрент-статистика

Создавать темы 03-Май-2015 00:03

[Цитировать]

-Седьмой сын
Seventh Son

Год выпуска: 2014
Страна: США, Великобритания, Канада, Китай (Legendary Pictures, Universal Pictures)
Жанр: Фэнтези, Приключения
Продолжительность: 01:42:00
Перевод: Профессиональный дублированный
Режиссер: Сергей Бодров ст. / Sergey Bodrov-Роли исполняли (дублировали):

Tom Ward - Бен Барнс (Антон Эльдаров)
Master Gregory - Джефф Бриджес (Владимир Антоник)
Mother Malkin - Джулианна Мур (Елена Соловьева)
Alice - Алисия Викандер (Мария Иващенко)
Bony Lizzie - Антье Трауэ (Ирина Киреева)
Mam Ward - Оливия Уильямс (Алёна Ивченко)
Tusk - Джон ДеСантис
Mr. Bradley - Кит Харингтон
Radu - Джимон Хонсу (Василий Дахненко)
Inquisitor - Джерард Планкет
Urag - Джейсон Скотт Ли
-Описание: Рассказ в фильме пойдет про парня, который, так уж вышло, стал седьмым сыном седьмого сына. А только такой человек может стать ведьмаком. Но этого недостаточно, чтобы именовать себя так — необходимо пройти массу тренировок, а также усердно учиться. Ведь главное оружие ведьмака — это его ум. Хоть в народе их не любят, но кто-то же обязан убивать нечисть, хранить землю от сил зла и делать всю грязную работу? Юный Том Уорд попробует стать тем самым учеником ведьмака.

Знаете ли вы, что...

  • «Седьмой сын» снят по детскому роману Джозефа Дилейни «Ученик ведьмака».
  • На роль Тома Уорда рассматривались Алекс Петтифер, Шайло Фернандез, Сэм Клафлин, Калеб Лэндри Джонс и Джеймс Фрешвилл.
  • Претендентками на роль Элис были Дженнифер Лоуренс, Диана Агрон, Имоджен Путс и Фелисити Джонс.
  • Съёмки начались 19 марта 2012 года в Ванкувере.
  • Первоначальная дата релиза фильма была назначена на 22 февраля 2013 года. С тех пор премьера фильма неоднократно переносилась, по причинам затянувшегося пост-продакшна и разрыва отношений между студиями Legendary Pictures и Warner Bros. В результате, новый прокатчик картины — Universal Studios, перенес премьеру фильма на 2015 год.

Ошибка в фильме

На 24 минуте фильма Малкин говорит о растущей Луне, но сразу после этого идет кадр с убывающей.
Премьера: 17 декабря 2014 (1 января 2015)
Релиз на Blu-Ray (DVD) (Россия): 30 апреля 2015
Бюджет: $100 000 000
Кассовые сборы: $110 623 265

. .
-Качество: BDRip (by Ash61)
Контейнер: MKV
Формат 3D: Half OverUnder / Вертикальная анаморфная стереопара
Порядок ракурсов: левый ракурс первый-Видео: AVC / 23,976 fps / 1920х1080p / 13.8 Mbps
Аудио:
#1 - Русский / AC3 / 48 KHz / 5.1 ch / 640 Kbps (Дубляж - BD 3D CEE)
#2 - Английский / AC3 / 48 KHz / 5.1 ch / 640 Kbps (Original - BD 3D CEE)
Субтитры (SRT):
Вшитые (softsub):
#1 - Русские Форсированные (одна надпись) (включены по умолчанию)
#2 - Русские Полные
#3 - Украинские Полные
#4 - English Full
#5 - English SDH
#6 - English SDH-colored
Внешние (UTF-8):
#1 - Русские Форсированные (одна надпись) (включены по умолчанию)

MediaInfo

General
Unique ID : 219250582262747784797822503974995264151 (0xA4F2204CB453B278A9D32F078F448297)
Complete name : E:\SeventhSon(2014)3D-halfOU(Ash61)\SeventhSon(2014)3D-halfOU(Ash61).mkv
Format : Matroska
Format version : Version 2
File size : 10.9 GiB
Duration : 1h 41mn
Overall bit rate : 15.4 Mbps
Movie name : Седьмой сын / Seventh Son (2014) 3D
Encoded date : UTC 2015-04-23 04:27:27
Writing application : mkvmerge v5.8.0 ('No Sleep / Pillow') built on Sep 2 2012 15:37:04
Writing library : libebml v1.2.3 + libmatroska v1.3.0
Video
ID : 1
Format : AVC
Format/Info : Advanced Video Codec
Format profile : High@L4.1
Format settings, CABAC : Yes
Format settings, ReFrames : 4 frames
Codec ID : V_MPEG4/ISO/AVC
Duration : 1h 41mn
Bit rate : 13.8 Mbps
Width : 1 920 pixels
Height : 1 080 pixels
Display aspect ratio : 16:9
Frame rate mode : Constant
Frame rate : 23.976 fps
Color space : YUV
Chroma subsampling : 4:2:0
Bit depth : 8 bits
Scan type : Progressive
Bits/(Pixel*Frame) : 0.277
Stream size : 9.82 GiB (90%)
Title : BDRip by Ash61
Writing library : x264 core 138 r2358 9e941d1
Encoding settings : cabac=1 / ref=4 / deblock=1:-3:-3 / analyse=0x3:0x113 / me=umh / subme=10 / psy=1 / psy_rd=1.00:0.00 / mixed_ref=1 / me_range=32 / chroma_me=1 / trellis=2 / 8x8dct=1 / cqm=0 / deadzone=21,11 / fast_pskip=1 / chroma_qp_offset=-2 / threads=12 / lookahead_threads=2 / sliced_threads=0 / nr=0 / decimate=1 / interlaced=0 / bluray_compat=0 / constrained_intra=0 / bframes=9 / b_pyramid=2 / b_adapt=2 / b_bias=0 / direct=3 / weightb=1 / open_gop=0 / weightp=2 / keyint=250 / keyint_min=23 / scenecut=40 / intra_refresh=0 / rc_lookahead=60 / rc=crf / mbtree=1 / crf=15.5 / qcomp=0.70 / qpmin=10 / qpmax=51 / qpstep=4 / vbv_maxrate=40000 / vbv_bufsize=30000 / crf_max=0.0 / nal_hrd=none / frame-packing=4 / ip_ratio=1.40 / aq=1:0.70
Language : English
Default : Yes
Forced : No
Audio #1
ID : 2
Format : AC-3
Format/Info : Audio Coding 3
Mode extension : CM (complete main)
Format settings, Endianness : Big
Codec ID : A_AC3
Duration : 1h 41mn
Bit rate mode : Constant
Bit rate : 640 Kbps
Channel(s) : 6 channels
Channel positions : Front: L C R, Side: L R, LFE
Sampling rate : 48.0 KHz
Bit depth : 16 bits
Compression mode : Lossy
Stream size : 467 MiB (4%)
Title : Дубляж - BD 3D CEE
Language : Russian
Default : Yes
Forced : No
Audio #2
ID : 3
Format : AC-3
Format/Info : Audio Coding 3
Mode extension : CM (complete main)
Format settings, Endianness : Big
Codec ID : A_AC3
Duration : 1h 41mn
Bit rate mode : Constant
Bit rate : 640 Kbps
Channel(s) : 6 channels
Channel positions : Front: L C R, Side: L R, LFE
Sampling rate : 48.0 KHz
Bit depth : 16 bits
Compression mode : Lossy
Stream size : 467 MiB (4%)
Title : Original - BD 3D CEE
Language : English
Default : No
Forced : No
Text #1
ID : 4
Format : UTF-8
Codec ID : S_TEXT/UTF8
Codec ID/Info : UTF-8 Plain Text
Title : Форсированные
Language : Russian
Default : Yes
Forced : No
Text #2
ID : 5
Format : UTF-8
Codec ID : S_TEXT/UTF8
Codec ID/Info : UTF-8 Plain Text
Title : Полные
Language : Russian
Default : No
Forced : No
Text #3
ID : 6
Format : UTF-8
Codec ID : S_TEXT/UTF8
Codec ID/Info : UTF-8 Plain Text
Title : Полные
Language : Ukrainian
Default : No
Forced : No
Text #4
ID : 7
Format : UTF-8
Codec ID : S_TEXT/UTF8
Codec ID/Info : UTF-8 Plain Text
Title : Full
Language : English
Default : No
Forced : No
Text #5
ID : 8
Format : UTF-8
Codec ID : S_TEXT/UTF8
Codec ID/Info : UTF-8 Plain Text
Title : SDH
Language : English
Default : No
Forced : No
Text #6
ID : 9
Format : UTF-8
Codec ID : S_TEXT/UTF8
Codec ID/Info : UTF-8 Plain Text
Title : SDH-Colored
Language : English
Default : No
Forced : No
Menu
00:00:00.000 : :1
00:04:50.415 : :2
00:10:28.545 : :3
00:16:40.583 : :4
00:22:40.359 : :5
00:27:40.450 : :6
00:30:17.691 : :7
00:36:45.203 : :8
00:42:37.388 : :9
00:49:54.742 : :10
00:54:45.073 : :11
00:57:48.548 : :12
01:02:53.144 : :13
01:06:53.968 : :14
01:11:29.285 : :15
01:18:36.921 : :16
01:22:10.300 : :17
01:25:32.669 : :18
01:30:15.035 : :19
01:33:21.095 : :20

Для оценки 3Д - Анимированные скрины















[Профиль] [ЛС]
Кто просматривает тему:

Форум Тема Автор Размер
Chanson (Шансон) VA - Опасные Связи (Выпуск Седьмой) - 2015, MP3, 256 kbps Magnat 726 MB
National Geographic NG: Седьмой континент: Антарктида / Continent 7: Antarctica [сезон 1 серии 1-3 из 6] (Todd Hermann) [2016 г., Документальный, научно-популярный, ислледования, HDTVRip 720p] skorpionN 5.05 GB
XXXI Летние Олимпийские игры. Рио-де-Жанейро 2016 (Бразилия) XXXI Летние Олимпийские Игры. Рио-де-Жанейро (Бразилия). Легкая атлетика. Седьмой день. Вечер [18.08] (2016) HDTV 1080i ODESSA 11.47 GB
XXXI Летние Олимпийские игры. Рио-де-Жанейро 2016 (Бразилия) XXXI Летние Олимпийские Игры. Рио-де-Жанейро (Бразилия). Легкая атлетика. Седьмой день. Утро [18.08] (2016) HDTV 1080i BOSS 13.13 GB
Боевики, детективы, триллеры Акунин Борис - Смерть на брудершафт. Фильма седьмая. «Мария», Мария... [Сергей Чонишвили, 2012 г., 256 kbps, MP3] sergej644 201 MB
Фильмы 2015 года Номер семь / Седьмой / Boy 7 (Лауренс Блок / Lourens Blok) [2015, Нидерланды, Венгрия, фантастика, боевик, триллер, HDRip-AVC] VO + Original (Dut) + Sub (Eng, Dut) TorrentFilm 1.45 GB
Фильмы (DVD 5/9) Седьмая жертва (Марк Горобец) [2010, Россия, мелодрама, криминал, DVD9] R5 Original Rus TorrentFilm 5.74 GB
R.G.TorrentFilm Video Седьмая мишень / La 7eme cible (Клод Пиното) [1984 г., триллер, драма, мелодрама, HDRip] [DUB, DVO] Bathory 2.05 GB
Показать сообщения:    

Текущее время: Сегодня 22:22

Часовой пояс: GMT



Вы не можете начинать темы
Вы не можете отвечать на сообщения
Вы не можете редактировать свои сообщения
Вы не можете удалять свои сообщения
Вы не можете голосовать в опросах
Вы не можете прикреплять файлы к сообщениям
Вы не можете скачивать файлы