Седьмая жертва (Марк Горобец) [2010, Россия, мелодрама, криминал, DVD9] R5 Original Rus

 
Автор Сообщение

TorrentFilm ®

Пол:

Стаж: 2 года

Сообщений: 7741



Награды: Нет

Торрент-статистика

Создавать темы 01-Янв-2016 00:08

[Цитировать]

-Седьмая жертва -Страна: Россия
Студия: Мотор Фильм Студия
Жанр: мелодрама, криминал
Год выпуска: 2010
Российская премьера: 20 февраля 2011
Дата выхода DVD: 6 сентября 2012, «Монолит»
Продолжительность: 01:32:13
Перевод: Оригинал [Лицензия]
Cубтитры: нет
Оригинальная аудиодорожка: русский-Режиссер: Марк Горобец-В ролях: Юлия Меньшова, Андрей Соколов, Игорь Гордин, Иван Шабалтас, Татьяна Андреева, Олег Зиновьев, Сергей Каплунов, Евгений Куршинский, Светлана Макарова-Васильченко, Евгения Морозова, Михаил Негин, Юлия Шиферштейн, Александр Постников-Описание: Вот уже целый год в городе орудует маньяк-убийца. На его счету шесть жертв, каждая из которых задушена струной от рояля. В то время как следствие в лице Глухаревой и Гнездиковского стремится доказать виновность главного подозреваемого, неудавшегося музыканта, адвокат Зимин берётся защищать его интересы.
Профессиональное противостояние, перерастающее в любовный треугольник, запутанная история, разыгрываемая перед нашими героями — настоящая симфония, которую им предстоит разложить по нотам, а главное, предотвратить последнее, седьмое убийство.
-Бонусы: Смотрите на DVD- -Релиз группы: -Качество: DVD9 R5
Формат: DVD-Video
Видео кодек: MPEG2
Аудио кодек: AC3
Видео: PAL 4:3 (720x576(0.737)) MPEG Video, 25,000 кадр/сек, 7644 Кбит/сек
Аудио: Russian (Dolby AC3, 2 ch) 384 Кбит/сек, 48,0 КГц--

DVDInfo

Title: Sedmaja.zhertva.2010.DVD9
Size: 5.74 Gb ( 6 021 194,00 KBytes ) - DVD-9
Enabled regions: 1, 2, 3, 4, 5, 6, 7, 8
VTS_01 :
Play Length: 01:32:13
Video: PAL 4:3 (720x576) VBR
Audio:
Russian (Dolby AC3, 2 ch)
VTS_02 :
Play Length: 00:00:14+00:00:09+00:01:59+00:01:54+00:02:11+00:01:48
Video: PAL 16:9 (720x576) VBR, Auto Pan&Scan, Auto Letterboxed
Audio:
Russian (Dolby AC3, 2 ch)
* Menus Information *
VIDEO_TS Menu
Video:
PAL 4:3 (720x576) VBR
Letterboxed
Audio:
Not specified (Dolby AC3, 2 ch)
English Language Unit :
Title Menu
VTS_01 Menu
Video:
PAL 4:3 (720x576) VBR
Audio:
Not specified (Dolby AC3, 2 ch)
English Language Unit :
Root Menu
VTS_02 Menu
Video:
PAL 4:3 (720x576) VBR
Auto Pan&Scan, Auto Letterboxed
English Language Unit :
Root Menu

MediaInfo

Общее
Полное имя : J:\Новинки 2012\Sedmaja.zhertva.2010.DVD9\VIDEO_TS\VTS_01_2.VOB
Формат : MPEG-PS
Размер файла : 1024 Мбайт
Продолжительность : 17 м.
Общий поток : 8171 Кбит/сек
Видео
Идентификатор : 224 (0xE0)
Формат : MPEG Video
Версия формата : Version 2
Профиль формата : Main@Main
Параметр BVOP формата : Да
Параметр матрицы формата : По умолчанию
Параметр GOP формата : M=3, N=15
Продолжительность : 17 м.
Битрейт : 7644 Кбит/сек
Ширина : 720 пикселей
Высота : 576 пикселей
Соотношение сторон : 4:3
Частота кадров : 25,000 кадров/сек
Стандарт вещания : PAL
Цветовое пространство : YUV
Субдискретизация насыщенности : 4:2:0
Битовая глубина : 8 бит
Тип развёртки : Прогрессивная
Метод сжатия : С потерями
Бит/(Пиксели*Кадры) : 0.737
Размер потока : 955 Мбайт (93%)
Аудио
Идентификатор : 189 (0xBD)-128 (0x80)
Формат : AC-3
Формат/Информация : Audio Coding 3
Расширение режима : CM (complete main)
Параметр Endianness формата : Big
Режим смешивания : DVD-Video
Продолжительность : 17 м.
Вид битрейта : Постоянный
Битрейт : 384 Кбит/сек
Каналы : 2 канала
Расположение каналов : Front: L R
Частота : 48,0 КГц
Битовая глубина : 16 бит
Метод сжатия : С потерями
Задержка видео : -712 мс.
Размер потока : 48,1 Мбайт (5%)

Скриншоты меню

Скриншоты фильма


-
-Раздача от группы:
[Профиль] [ЛС]
Кто просматривает тему:

Форум Тема Автор Размер
Chanson (Шансон) VA - Опасные Связи (Выпуск Седьмой) - 2015, MP3, 256 kbps Magnat 726 MB
National Geographic NG: Седьмой континент: Антарктида / Continent 7: Antarctica [сезон 1 серии 1-3 из 6] (Todd Hermann) [2016 г., Документальный, научно-популярный, ислледования, HDTVRip 720p] skorpionN 5.05 GB
XXXI Летние Олимпийские игры. Рио-де-Жанейро 2016 (Бразилия) XXXI Летние Олимпийские Игры. Рио-де-Жанейро (Бразилия). Легкая атлетика. Седьмой день. Вечер [18.08] (2016) HDTV 1080i ODESSA 11.47 GB
XXXI Летние Олимпийские игры. Рио-де-Жанейро 2016 (Бразилия) XXXI Летние Олимпийские Игры. Рио-де-Жанейро (Бразилия). Легкая атлетика. Седьмой день. Утро [18.08] (2016) HDTV 1080i BOSS 13.13 GB
Боевики, детективы, триллеры Акунин Борис - Смерть на брудершафт. Фильма седьмая. «Мария», Мария... [Сергей Чонишвили, 2012 г., 256 kbps, MP3] sergej644 201 MB
Фильмы 2015 года Номер семь / Седьмой / Boy 7 (Лауренс Блок / Lourens Blok) [2015, Нидерланды, Венгрия, фантастика, боевик, триллер, HDRip-AVC] VO + Original (Dut) + Sub (Eng, Dut) TorrentFilm 1.45 GB
R.G.TorrentFilm Video Седьмая мишень / La 7eme cible (Клод Пиното) [1984 г., триллер, драма, мелодрама, HDRip] [DUB, DVO] Bathory 2.05 GB
Отечественные cериалы Седьмая руна [01-08 из 08] (2015) WEB-DLRip-AVC BOSS 5.03 GB
Показать сообщения:    

Текущее время: Сегодня 15:43

Часовой пояс: GMT



Вы не можете начинать темы
Вы не можете отвечать на сообщения
Вы не можете редактировать свои сообщения
Вы не можете удалять свои сообщения
Вы не можете голосовать в опросах
Вы не можете прикреплять файлы к сообщениям
Вы не можете скачивать файлы