Северная Америка - изгнанники и скелеты / North America - Outlaws and Skeletons [2013, Документальный, DVB] VO "Кириллица"

 
Автор Сообщение

reversefile ®

Пол:

Стаж: 4 года 5 месяцев

Сообщений: 842

Откуда: ReverseFile.org



Награды: Нет

Торрент-статистика

Создавать темы 24-Июл-2014 17:55

[Цитировать]

Северная Америка - изгнанники и скелеты / North America - Outlaws and Skeletons
Год выпуска: 2013
Страна: США / Великобритания
Жанр: Документальный
Продолжительность: 00:44:15
Перевод: Студийный (одноголосый закадровый) - Давид Петросян
Русские субтитры: нет
Описание: Пустыни Северной Америки - уникальные экосистемы с жестоким климатом и разнообразием ни на что не похожих форм жизни.
Сэмпл: http://multi-up.com/904693
качество: DVB
формат: TS/M2TS
Видео: 720x576 (4:3 PAL Anamorphic / Letterboxed), MPEG2 Transportation Stream [DVB-S], 25 fps, Interlaced [50i], ABR 3500 kbps
Аудио: Russian (VO "Кириллица"), MPEG1-Layer 2, 48000 Hz, 2.0ch Stereo, CBR 192 kbps

MediaInfo

ОбщееИдентификатор : 1 (0x1)Полное имя : D:\RELEASES\Северная Америка Изгнанники и скелеты.tsФормат : MPEG-TSРазмер файла : 1,11 ГбайтПродолжительность : 44 м.Режим общего битрейта : ПеременныйОбщий поток : 3578 Кбит/секМаксимальный общий битрейт : 35,5 Мбит/сек
ВидеоИдентификатор : 4113 (0x1011)Идентификатор меню : 1 (0x1)Формат : MPEG VideoВерсия формата : Version 2Профиль формата : Main@MainПараметр BVOP формата : ДаПараметр матрицы формата : ВыборочнаяПараметр GOP формата : VariableИдентификатор кодека : 2Продолжительность : 44 м.Вид битрейта : ПеременныйБитрейт : 3207 Кбит/секМаксимальный битрейт : 15,0 Мбит/секШирина : 720 пикселейВысота : 576 пикселейСоотношение сторон : 4:3Частота кадров : 25,000 кадров/секСтандарт вещания : PALЦветовое пространство : YUVСубдискретизация насыщенности : 4:2:0Битовая глубина : 8 битТип развёртки : ЧересстрочнаяПорядок развёртки : Верхнее поле первоеМетод сжатия : С потерямиБит/(Пиксели*Кадры) : 0.309Размер потока : 1015 Мбайт (90%)
АудиоИдентификатор : 4352 (0x1100)Идентификатор меню : 1 (0x1)Формат : MPEG AudioВерсия формата : Version 1Профиль формата : Layer 2Идентификатор кодека : 4Продолжительность : 44 м.Вид битрейта : ПостоянныйБитрейт : 192 Кбит/секКаналы : 2 каналаЧастота : 48,0 КГцМетод сжатия : С потерямиЗадержка видео : 9 мс.Размер потока : 60,8 Мбайт (5%)Язык : Russian

Скриншоты

[Профиль] [ЛС]
Кто просматривает тему:

Форум Тема Автор Размер
Документальные HD Stenus XX. Северная Осетия. Экспедиция (Александр Алексеев) [2015, документальный, HDTVRip 720p] TorrentFilm 3.14 GB
Разная литература Александр Север - Сборник произведений (20 книг) [2008-2015, История, Документальная литература, Cпецслужбы, FB2] обновлено 11.02.2016 Garik014 38 MB
Документальные HD Альпы с высоты: Северные Альпы / Die Alpen von oben: Nordalpen (2011) BDRip 1080p sergej644 30.25 GB
Документальные HD Альпы с высоты: Северные Альпы / Die Alpen von oben: Nordalpen (Лиза Эдер / Lisa Eder, Кристиан Шидловски / Christian Schidlowski) [2011, Документальный, BDRip 720p] TorrentFilm 14.89 GB
Документальные HD Альпы с высоты: Северные Альпы / Die Alpen von oben: Nordalpen (Лиза Эдер / Lisa Eder, Кристиан Шидловски / Christian Schidlowski) [2011, Документальный, Blu-ray Disc 1080i (Custom)] TorrentFilm 44.45 GB
Сhanson Аркадий Северный - 100 лучших песен (2016) MP3 Russian Mafia 1014 MB
R.G.TorrentFilm Video Атлантида Русского Севера (Софья Горленко) [2015, Документальный, BDRip] Один 777 600 MB
Документальные HD Великий Север / Great North (Мартин Дж. Дигнард / Martin J. Dignard, Уиллиям Риив / William Reeve) [2001 г., Документальный, BDRip 720p] TorrentFilm 5.38 GB
Показать сообщения:    

Текущее время: Сегодня 10:14

Часовой пояс: GMT



Вы не можете начинать темы
Вы не можете отвечать на сообщения
Вы не можете редактировать свои сообщения
Вы не можете удалять свои сообщения
Вы не можете голосовать в опросах
Вы не можете прикреплять файлы к сообщениям
Вы не можете скачивать файлы