Севастополь. Русская троя. Фильм Алексея Денисова (Алексей Денисов) [2015, Документальный, исторический, H.264, HDTV/1080i]

 
Автор Сообщение

TorrentFilm ®

Пол:

Стаж: 2 года

Сообщений: 7741



Награды: Нет

Торрент-статистика

Создавать темы 25-Мар-2015 00:03

[Цитировать]

Севастополь. Русская троя. Фильм Алексея Денисова
-Год выпуска: 2015
Страна: Россия
Жанр: Документальный, исторический
Продолжительность: 00:52:04
Перевод: Не требуется
Субтитры: нет-Ведущий: Фёдор Бондарчук
Режиссер: Алексей Денисов
-Описание: С первых дней своего существования Севастополь стал одним из геополитических центров русского мира и защитником его стратегических интересов.
Появление русского флага в водах Черного моря обрадовало далеко не всех. Например, Турция и ее вассалы лишились огромных доходов от работорговли.
Для того чтобы вытеснить Россию из Крыма, англичане даже объединились со своими давними соперниками – французами. К ним присоединились Турция и Сардиния.
Осенью 1854 года огромная англо-французская эскадра подошла к берегам Крыма. Вторжение осуществлялось для защиты от посягательств России под флагом ослабевшей Османской империи. Действительной целью агрессоров было уничтожение Севастополя и максимальное ослабление нашей страны.
В XX веке Севастополь вновь подвергся вероломному нападению европейских завоевателей. По приказу Гитлера немцы стянули под город гаубицы и осадные мортиры самых крупных калибров. Они должны были не только взломать нашу оборону, но и подавить волю жителей к сопротивлению. Но сломить дух севастопольцев гитлеровским захватчикам так и не удалось.
В XXI веке история бросила городу очередной вызов. После государственного переворота на Украине началось очередное наступление на историческую память народа. Потомкам Нахимова и Корнилова, Рокоссовского и Кожедуба воцарившийся Майдан предложил в качестве новых героев гитлеровских "шестерок" - Бандеру и Шухевича. И город восстал. На общекрымском референдуме почти 97% жителей Крыма и Севастополя проголосовало за воссоединение со своей исторической Родиной – Россией. Весной 2014 года легендарный русский город, овеянный мировой славой, вернулся в родную гавань.-Релиз: olegka7373 [RG GeneralFilm]-Качество: HDTV 1080i
Формат: TS
Видео кодек: H.264
Аудио кодек: MP2
Видео: MPEG-4 AVC, 8605 Кбит/с, 1920x1080, 25 кадр/с
Аудио: MP2, 2 ch, 224 Кбит/с

Скриншоты


MediaInfo

Формат : MPEG-TSРазмер файла : 3,38 ГбайтПродолжительность : 52 м.Режим общего битрейта : ПеременныйОбщий поток : 9290 Кбит/сек
ВидеоИдентификатор : 41 (0x29)Идентификатор меню : 60 (0x3C)Формат : AVCФормат/Информация : Advanced Video CodecПрофиль формата : High@L4.0Параметр CABAC формата : ДаПараметр ReFrames формата : 3 кадраПараметр GOP формата : M=4, N=32Идентификатор кодека : 27Продолжительность : 52 м.Битрейт : 8605 Кбит/секШирина : 1920 пикселейВысота : 1080 пикселейСоотношение сторон : 16:9Частота кадров : 25,000 кадров/секСтандарт вещания : ComponentЦветовое пространство : YUVСубдискретизация насыщенности : 4:2:0Битовая глубина : 8 битТип развёртки : ЧересстрочнаяПорядок развёртки : Верхнее поле первоеБит/(Пиксели*Кадры) : 0.166Размер потока : 3,13 Гбайт (93%)Основные цвета : BT.709Характеристики трансфера : BT.709Коэффициенты матрицы : BT.709colour_range : Limited
АудиоИдентификатор : 44 (0x2C)Идентификатор меню : 60 (0x3C)Формат : MPEG AudioВерсия формата : Version 1Профиль формата : Layer 2Идентификатор кодека : 3Продолжительность : 52 м.Вид битрейта : ПостоянныйБитрейт : 224 Кбит/секКаналы : 2 каналаЧастота : 48,0 КГцМетод сжатия : С потерямиРазмер потока : 83,4 Мбайт (2%)Язык : Russian
[Профиль] [ЛС]
Кто просматривает тему:

Форум Тема Автор Размер
Фильмы (HD DVD, Blu-ray и BDRemux) Битва за Севастополь (2015) BDRemux 1080p | Лицензия достали все 20.04 GB
Фильмы (HD DVD, Blu-ray и BDRemux) Битва за Севастополь (2015) BDRemux 1080p от ExKinoRay | Ger Transfer | Лицензия Russian Mafia 27.72 GB
Фильмы (HD Rips | 720p, 1080p) Битва за Севастополь (2015) BDRip 720p | Лицензия достали все 5.29 GB
Фильмы 2015 года Битва за Севастополь (2015) DVDRip [H.264] достали все 1.46 GB
Фильмы 2015 года Битва за Севастополь (Сергей Мокрицкий) [2015, Военный, ВОВ, драма, реальные события] DVDRip | Лицензия BOSS 2.05 GB
Фильмы (HD Rips | 720p, 1080p) Битва за Севастополь (Сергей Мокрицкий) [2015, Россия, Украина, военный, боевик, мелодрама, драма, BDRip 1080p] TorrentFilm 9.87 GB
Фильмы (HD Rips | 720p, 1080p) Битва за Севастополь (Сергей Мокрицкий) [2015, Россия, Украина, военный, боевик, мелодрама, драма, BDRip 720p] + Original Rus TorrentFilm 4.84 GB
Фильмы (HD Rips | 720p, 1080p) Битва за Севастополь (Сергей Мокрицкий) [2015, Россия, Украина, военный, драма, Blu-ray Disc 1080p] TorrentFilm 21.49 GB
Показать сообщения:    

Текущее время: Сегодня 08:18

Часовой пояс: GMT



Вы не можете начинать темы
Вы не можете отвечать на сообщения
Вы не можете редактировать свои сообщения
Вы не можете удалять свои сообщения
Вы не можете голосовать в опросах
Вы не можете прикреплять файлы к сообщениям
Вы не можете скачивать файлы