Сгибания с Монти / Flexing with Monty (Джон Алдо / John Albo) [2010, США, ужасы, драма, комедия, DVDRip] VO (Кошкин)

 
Автор Сообщение

TorrentFilm ®

Пол:

Стаж: 2 года

Сообщений: 7741



Награды: Нет

Торрент-статистика

Создавать темы 15-Авг-2015 00:08

[Цитировать]

Сгибания с Монти / Flexing with Monty- Страна: США
Жанр: ужасы, драма, комедия
Год выпуска: 2010
Продолжительность: 01:29:35-Перевод: Одноголосый закадровый Василий Кошкин
Cубтитры: нет-Режиссер: Джон Алдо / John Albo
В ролях: Тревор Годдар, Руди Дэвис, Венус Ле Доме, Мелинда Петерсон, Гвен Ван Дам, Митч Хара, Сэлли Кёркленд, Фэйт Птак, Мишель Зейтлин, Сьюзен Тиррел-Описание: Монти — культурист. Его тренажёрный зал – весь смысл его существования. Он агрессивный, возмутительно-нарциссичный фанатик. Его неуютный мир разделяет психически и интеллектуально неуравновешенный брат Бёртон. В один дождливый день странный, но размеренный порядок жизни братьев нарушается неожиданным появлением Лилит, монашки, собирающей пожертвования на «особое дело». Появление Лилит служит катализатором, необходимым для моментального изменения отношений между Бёртоном и его братом, изменения, приведшего к удивительному и ужасному крушению тщеславного Монти.-Сэмпл-Качество видео: DVDRip
Формат видео: AVI
Видео: 624x336 (1.86:1), 23.976 fps, XviD MPEG-4 ~989 kbps avg, 0.20 bit/pixel
Аудио: 48 kHz, MPEG Layer 3, 2 ch, ~128.00 kbps avg

MediaInfo

General
Complete name : E:\Downloads\Flexing.with.Monty.2010.VO.avi
Format : AVI
Format/Info : Audio Video Interleave
File size : 722 MiB
Duration : 1h 29mn
Overall bit rate : 1 127 Kbps
Writing application : VirtualDubMod 1.5.10.2 (build 2540/release)
Writing library : VirtualDubMod build 2540/release
Video
ID : 0
Format : MPEG-4 Visual
Format profile : Advanced Simple@L5
Format settings, BVOP : 1
Format settings, QPel : No
Format settings, GMC : No warppoints
Format settings, Matrix : Default (MPEG)
Muxing mode : Packed bitstream
Codec ID : XVID
Codec ID/Hint : XviD
Duration : 1h 29mn
Bit rate : 990 Kbps
Width : 624 pixels
Height : 336 pixels
Display aspect ratio : 1.85:1
Frame rate : 23.976 fps
Color space : YUV
Chroma subsampling : 4:2:0
Bit depth : 8 bits
Scan type : Progressive
Compression mode : Lossy
Bits/(Pixel*Frame) : 0.197
Stream size : 634 MiB (88%)
Writing library : XviD 1.2.0.dev47 (UTC 2006-11-01)
Audio
ID : 1
Format : MPEG Audio
Format version : Version 1
Format profile : Layer 3
Mode : Joint stereo
Mode extension : MS Stereo
Codec ID : 55
Codec ID/Hint : MP3
Duration : 1h 29mn
Bit rate mode : Constant
Bit rate : 128 Kbps
Channel(s) : 2 channels
Sampling rate : 48.0 KHz
Compression mode : Lossy
Stream size : 82.0 MiB (11%)
Alignment : Aligned on interleaves
Interleave, duration : 42 ms (1.00 video frame)
Interleave, preload duration : 504 ms
Writing library : LAME3.98.4

Скриншот c названием фильма

Скриншоты

[Профиль] [ЛС]

Создавать темы 12-Июн-2016 07:53 (спустя 9 месяцев 28 дней)

Топик был перенесен из форума Фильмы 2011 года в форум Фильмы 2010 года
Russian Mafia
 
Показать сообщения:    

Текущее время: Сегодня 23:29

Часовой пояс: GMT



Вы не можете начинать темы
Вы не можете отвечать на сообщения
Вы не можете редактировать свои сообщения
Вы не можете удалять свои сообщения
Вы не можете голосовать в опросах
Вы не можете прикреплять файлы к сообщениям
Вы не можете скачивать файлы