Святые роллеры / Святоши / Holy Rollers (Кевин Аш / Kevin Asch) [2010, США, драма, криминал, биография, BDRip] VO (zamez) + Sub Rus + Original Eng

 
Автор Сообщение

TorrentFilm ®

Пол:

Стаж: 2 года

Сообщений: 7741



Награды: Нет

Торрент-статистика

Создавать темы 23-Июл-2015 00:09

[Цитировать]

Святые роллеры / Святоши / Holy Rollers
Страна: США
Жанр: драма, криминал, биография
Год выпуска: 2010
Продолжительность: 01:28:49
Перевод: Одноголосый закадровый - zamez
Cубтитры: русские (ЕкатеринаСир (Ышка)), английские
Оригинальная аудиодорожка: английский

Режиссер: Кевин Аш / Kevin Asch
В ролях: Джесси Айзенберг, Джастин Барта, Дэнни А. Абекейзер, Эри Грейнор, Джейсон Фучс, Кью-Тип, Берн Коэн, Марк Иванир, Чарли Хьюсон, Элизабет Марвел
Описание: Сэм Голд, молодой хасид из ортодоксальной общины Бруклина, неохотно идет по пути, который избрала для него семья. Его очаровательный сосед, Йосеф Циммерман, понимает чувства Сэма и предлагает ему сотрудничать в транспортировке «лекарства» с израильскими дилерами и его подружкой Рэйчел. Сэм быстро демонстрирует свои деловые умения новым хозяевам, и они берут его под свое крыло. Через какое-то время двойная жизнь Сэма приводит его к необходимости сделать очень серьезный и страшный выбор.
Качество видео: BDRip
Формат видео: AVI
Видео: 720x384 (1.88:1), 23.976 fps, XviD build 73 ~1889 kbps avg, 0.28 bit/pixel
Аудио: 48 kHz, AC3 Dolby Digital, 3/2 (L,C,R,l,r) + LFE ch, ~448 kbps - одноголосый
Аудио: 48 kHz, AC3 Dolby Digital, 3/2 (L,C,R,l,r) + LFE ch, ~448 kbps - оригинал (отдельным файлом)

MediaInfo

Общее
Полное имя : H:\Holy.Rollers.2010.dbrip_[1.46]_[teko]\Holy.Rollers.2010.dbrip_[1.46].avi
Формат : AVI
Формат/Информация : Audio Video Interleave
Размер файла : 1,46 Гбайт
Продолжительность : 1 ч. 28 м.
Общий поток : 2347 Кбит/сек
Программа кодирования : VirtualDubMod 1.5.10.3 | www.virtualdub-fr.org || (build 2550/release)
Библиотека кодирования : VirtualDubMod build 2550/release
Видео
Идентификатор : 0
Формат : MPEG-4 Visual
Профиль формата : Advanced Simple@L5
Параметр BVOP формата : 1
Параметр QPel формата : Нет
Параметр GMC формата : Без точки перехода
Параметр матрицы формата : Выборочная
Идентификатор кодека : XVID
Идентификатор кодека/Подсказка : XviD
Продолжительность : 1 ч. 28 м.
Битрейт : 1890 Кбит/сек
Ширина : 720 пикселей
Высота : 384 пикселя
Соотношение сторон : 1,85:1
Частота кадров : 23,976 кадра/сек
Цветовое пространство : YUV
Субдискретизация насыщенности : 4:2:0
Битовая глубина : 8 бит
Тип развёртки : Прогрессивная
Метод сжатия : С потерями
Бит/(Пиксели*Кадры) : 0.285
Размер потока : 1,17 Гбайт (81%)
Библиотека кодирования : XviD 73
Аудио
Идентификатор : 1
Формат : AC-3
Формат/Информация : Audio Coding 3
Расширение режима : CM (complete main)
Параметр Endianness формата : Big
Идентификатор кодека : 2000
Продолжительность : 1 ч. 28 м.
Вид битрейта : Постоянный
Битрейт : 448 Кбит/сек
Каналы : 6 каналов
Расположение каналов : Front: L C R, Side: L R, LFE
Частота : 48,0 КГц
Битовая глубина : 16 бит
Метод сжатия : С потерями
Размер потока : 285 Мбайт (19%)
Выравнивание : Разделение по промежуткам
Продолжительность промежутка : 42 мс. (1,00 видеокадр)
Время предзагрузки промежутка : 500 мс.

Скриншоты

Релиз группы:
--
[Профиль] [ЛС]

Создавать темы 06-Авг-2015 22:23 (спустя 14 дней)

Топик был перенесен из форума Фильмы до 2014 года в форум Фильмы до 2012 года
sergej644
 

Создавать темы 12-Июн-2016 07:55 (спустя 10 месяцев 20 дней)

Топик был перенесен из форума Фильмы 2011 года в форум Фильмы 2010 года
Russian Mafia
 
Кто просматривает тему:

Форум Тема Автор Размер
Аниме [HD 720p, 1080p] Ди.Грэй-мен: Святые / D.Gray-man Hallow TV 2 (Серии 1- 13 из 13) (Асино Ёсихару) [2016, Приключения, комедия, фэнтези, мультсериал , HDTVRip-AVC 720р] [MVO] [Anidub,AniLibria] [DD5.1] [Ru... Враг Нароода 6.39 GB
Фильмы (HD Rips | 720p, 1080p) Канун Дня Всех Святых 2 / All Hallows' Eve 2 (2015) WEB-DL 720p | L2 достали все 2.71 GB
Фильмы 2015 года Канун Дня Всех Святых 2 / All Hallows' Eve 2 (2015) WEB-DLRip | L2 достали все 1.37 GB
Фильмы 2014 года Они были солдатами: Пустота / Святые и солдаты: Пустота / Saints and Soldiers: The Void (2014) BDRip | L1 достали все 1.46 GB
Разное Православные Храмы. Путешествие по святым местам [001-192] (2012-2016) PDF BOSS 5.01 GB
Фильмы (HD Rips | 720p, 1080p) Святые из Бундока 2: День всех святых / The Boondock Saints 2: All Saints Day (Трой Даффи / Troy Duffy) [2009, США, боевик, комедия, драма, криминал, BDRemux 1080p] [Director\'s Cut] VO (den904) +... bot 30.31 GB
Фильмы (HD Rips | 720p, 1080p) Святые из трущоб / Святые из Бундока / The Boondock Saints (1999) BDRip 1080p sergej644 7.95 GB
Фильмы 2010 года Святые роллеры / Святоши / Holy Rollers (Кевин Аш / Kevin Asch) [2010, США, драма, биография, криминал, BDRip] VO (zamez) TorrentFilm 743 MB
Показать сообщения:    

Текущее время: Сегодня 18:15

Часовой пояс: GMT



Вы не можете начинать темы
Вы не можете отвечать на сообщения
Вы не можете редактировать свои сообщения
Вы не можете удалять свои сообщения
Вы не можете голосовать в опросах
Вы не можете прикреплять файлы к сообщениям
Вы не можете скачивать файлы