Святые роллеры / Святоши / Holy Rollers (Кевин Аш / Kevin Asch) [2010, США, драма, биография, криминал, BDRip] VO (zamez)

 
Автор Сообщение

TorrentFilm ®

Пол:

Стаж: 2 года

Сообщений: 7741



Награды: Нет

Торрент-статистика

Создавать темы 17-Июл-2015 00:07

[Цитировать]

Святые роллеры / Святоши / Holy Rollers

Страна: США
Жанр: драма, биография, криминал
Год выпуска: 2010
Продолжительность: 01:28:49
Перевод: Одноголосый закадровый - zamez
Cубтитры: нет

Режиссер: Кевин Аш / Kevin Asch
В ролях: Джесси Айзенберг, Джастин Барта, Дэнни А. Абекейзер, Эри Грейнор, Джейсон Фучс, Кью-Тип, Берн Коэн, Марк Иванир, Чарли Хьюсон, Элизабет Марвел
Описание: Сэм Голд, молодой хасид из ортодоксальной общины Бруклина, неохотно идет по пути, который избрала для него семья. Его очаровательный сосед, Йосеф Циммерман, понимает чувства Сэма и предлагает ему сотрудничать в транспортировке «лекарства» с израильскими дилерами и его подружкой Рэйчел. Сэм быстро демонстрирует свои деловые умения новым хозяевам, и они берут его под свое крыло. Через какое-то время двойная жизнь Сэма приводит его к необходимости сделать очень серьезный и страшный выбор.
Качество видео: BDRip
Формат видео: AVI
Видео: 656x352 (1.86:1), 23.976 fps, XviD build 73 ~1031 kbps avg, 0.19 bit/pixel
Аудио: 48 kHz, MPEG Layer 3, 2 ch, ~128.00 kbps avg

MediaInfo

Общее
Полное имя : H:\Holy.Rollers.2010.dbrip_[745]_[teko].avi
Формат : AVI
Формат/Информация : Audio Video Interleave
Размер файла : 743 Мбайт
Продолжительность : 1 ч. 28 м.
Общий поток : 1169 Кбит/сек
Программа кодирования : VirtualDubMod 1.5.10.3 | www.virtualdub-fr.org || (build 2550/release)
Библиотека кодирования : VirtualDubMod build 2550/release
Видео
Идентификатор : 0
Формат : MPEG-4 Visual
Профиль формата : Advanced Simple@L5
Параметр BVOP формата : 2
Параметр QPel формата : Нет
Параметр GMC формата : Без точки перехода
Параметр матрицы формата : Выборочная
Идентификатор кодека : XVID
Идентификатор кодека/Подсказка : XviD
Продолжительность : 1 ч. 28 м.
Битрейт : 1032 Кбит/сек
Ширина : 656 пикселей
Высота : 352 пикселя
Соотношение сторон : 1,85:1
Частота кадров : 23,976 кадра/сек
Цветовое пространство : YUV
Субдискретизация насыщенности : 4:2:0
Битовая глубина : 8 бит
Тип развёртки : Прогрессивная
Метод сжатия : С потерями
Бит/(Пиксели*Кадры) : 0.186
Размер потока : 655 Мбайт (88%)
Библиотека кодирования : XviD 73
Аудио
Идентификатор : 1
Формат : MPEG Audio
Версия формата : Version 1
Профиль формата : Layer 3
Идентификатор кодека : 55
Идентификатор кодека/Подсказка : MP3
Продолжительность : 1 ч. 28 м.
Вид битрейта : Постоянный
Битрейт : 128 Кбит/сек
Каналы : 2 канала
Частота : 48,0 КГц
Метод сжатия : С потерями
Размер потока : 81,3 Мбайт (11%)
Выравнивание : Соединение по промежуткам
Продолжительность промежутка : 42 мс. (1,00 видеокадр)
Время предзагрузки промежутка : 504 мс.
Библиотека кодирования : LAME3.98r
Настройки программы : -m s -V 4 -q 2 -lowpass 17 -b 128
Релиз группы:
--
[Профиль] [ЛС]

Создавать темы 06-Авг-2015 22:23 (спустя 20 дней)

Топик был перенесен из форума Фильмы до 2014 года в форум Фильмы до 2012 года
sergej644
 

Создавать темы 12-Июн-2016 07:55 (спустя 10 месяцев 26 дней)

Топик был перенесен из форума Фильмы 2011 года в форум Фильмы 2010 года
Russian Mafia
 
Кто просматривает тему:

Форум Тема Автор Размер
Аниме [HD 720p, 1080p] Ди.Грэй-мен: Святые / D.Gray-man Hallow TV 2 (Серии 1- 13 из 13) (Асино Ёсихару) [2016, Приключения, комедия, фэнтези, мультсериал , HDTVRip-AVC 720р] [MVO] [Anidub,AniLibria] [DD5.1] [Ru... Враг Нароода 6.39 GB
Фильмы (HD Rips | 720p, 1080p) Канун Дня Всех Святых 2 / All Hallows' Eve 2 (2015) WEB-DL 720p | L2 достали все 2.71 GB
Фильмы 2015 года Канун Дня Всех Святых 2 / All Hallows' Eve 2 (2015) WEB-DLRip | L2 достали все 1.37 GB
Фильмы 2014 года Они были солдатами: Пустота / Святые и солдаты: Пустота / Saints and Soldiers: The Void (2014) BDRip | L1 достали все 1.46 GB
Разное Православные Храмы. Путешествие по святым местам [001-192] (2012-2016) PDF BOSS 5.01 GB
Фильмы (HD Rips | 720p, 1080p) Святые из Бундока 2: День всех святых / The Boondock Saints 2: All Saints Day (Трой Даффи / Troy Duffy) [2009, США, боевик, комедия, драма, криминал, BDRemux 1080p] [Director\'s Cut] VO (den904) +... bot 30.31 GB
Фильмы (HD Rips | 720p, 1080p) Святые из трущоб / Святые из Бундока / The Boondock Saints (1999) BDRip 1080p sergej644 7.95 GB
Фильмы 2010 года Святые роллеры / Святоши / Holy Rollers (Кевин Аш / Kevin Asch) [2010, США, драма, криминал, биография, BDRip] VO (zamez) + Sub Rus + Original Eng TorrentFilm 1.73 GB
Показать сообщения:    

Текущее время: Сегодня 10:47

Часовой пояс: GMT



Вы не можете начинать темы
Вы не можете отвечать на сообщения
Вы не можете редактировать свои сообщения
Вы не можете удалять свои сообщения
Вы не можете голосовать в опросах
Вы не можете прикреплять файлы к сообщениям
Вы не можете скачивать файлы