Святые из трущоб / Святые из Бундока / The Boondock Saints (1999) BDRip 1080p

 
Автор Сообщение

sergej644 ®

Пол:

Стаж: 4 года 11 месяцев

Сообщений: 6040

Откуда: Soviet Union



Награды: Нет

Торрент-статистика

Создавать темы 21-Янв-2015 01:04

[Цитировать]

Информация о фильме
Название: Святые из трущоб (Святые из Бундока)
Оригинальное название: The Boondock Saints
Год выхода: 1999
Жанр: боевик, триллер, драма, криминал
Режиссер: Трой Даффи
В ролях: Уиллем Дэфо, Шон Пэтрик Флэнери, Норман Ридус, Дэвид Делла Рокко, Билли Коннолли
О фильме:
Чего только не бывает на свете! Два обычных ирландских парня, братья Коннор и Мерфи, преспокойно жили и работали в своем родном Бостоне, пока в один прекрасный день на них не снизошло озарение: сам Бог послал их на землю с особой миссией, наделив святой силой, чтобы очистить мир от зла. И братья взялись за дело со всей серьезность, присущей ирландцам. Вскоре местную мафию охватывает настоящая паника — ведь методы «святых» не отличаются особой гуманностью, зато оказались очень эффективными — кровь полилась рекой. Массовый отстрел мафиози не смог не привлечь внимания ФБР. Спецагент Пол Смекер, ведущий расследование, попадает в непростую ситуацию: служебный долг требует пресечь деятельность «святых братьев», однако в душе он не только сочувствует им, но даже готов присоединится к исполнителям «священной» миссии.

Выпущено: США, Канада
Студия: Indican Pictures
Продолжительность: 01:48:26
Перевод: Профессиональный многоголосый закадровый + Профессиональный одноголосый закадровый + Оригинал
Файл
Кодек: x264
Качество: BDRip (источник: BD-Remux)
Видео: 1920x814 (2,35:1), 23.976 fps, 8255 kbps
Аудио #1: AC-3, 6 ch, 448 kbps (Rus) Дмитрий «Гоблин» Пучков
Аудио #2: AC-3, 6 ch, 448 kbps (Rus) MVO Tycoon Studio
Аудио #3: AC-3, 6 ch, 448 kbps (Rus) MVO Total DVD
Аудио #4: AC-3, 6 ch, 448 kbps (Rus) MVO R5 (Союз)
Аудио #5: AC-3, 6 ch, 448 kbps (Eng) Оригинал
Субтитры: Русские, Английские
Скачать: семпл

Скриншоты

MI

Общее
Уникальный идентификатор : 179283664446880317686792754383621886330 (0x86E0C71D3B01EE46B4EF00224002917A)
Полное имя : E:The.Boondock.Saints.1999.BDRip.1080p.Rus.Eng.mkv
Формат : Matroska
Версия формата : Version 4 / Version 2
Размер файла : 7,95 Гбайт
Продолжительность : 1 ч. 48 м.
Общий поток : 10,5 Мбит/сек
Название фильма : Святые из трущоб (Святые из Бундока) / The Boondock Saints (1999)
Дата кодирования : UTC 2013-07-31 18:46:00
Программа кодирования : mkvmerge v6.3.0 ('You can't stop me!') built on Jun 28 2013 20:09:41
Библиотека кодирования : libebml v1.3.0 + libmatroska v1.4.0
Видео
Идентификатор : 1
Формат : AVC
Формат/Информация : Advanced Video Codec
Профиль формата : High@L4.1
Параметр CABAC формата : Да
Параметр ReFrames формата : 5 кадров
Идентификатор кодека : V_MPEG4/ISO/AVC
Продолжительность : 1 ч. 48 м.
Битрейт : 8255 Кбит/сек
Ширина : 1920 пикселей
Высота : 814 пикселей
Соотношение сторон : 2,35:1
Режим частоты кадров : Постоянный
Частота кадров : 23,976 кадра/сек
Цветовое пространство : YUV
Субдискретизация насыщенности : 4:2:0
Битовая глубина : 8 бит
Тип развёртки : Прогрессивная
Бит/(Пиксели*Кадры) : 0.220
Размер потока : 6,09 Гбайт (77%)
Заголовок : Release by N1NT3NDO
Библиотека кодирования : x264 core 135 r2345 f0c1c53
Настройки программы : cabac=1 / ref=5 / deblock=1:-3:-3 / analyse=0x3:0x133 / me=umh / subme=11 / psy=1 / psy_rd=1.00:0.00 / mixed_ref=1 / me_range=32 / chroma_me=1 / trellis=2 / 8x8dct=1 / cqm=0 / deadzone=21,11 / fast_pskip=0 / chroma_qp_offset=-2 / threads=12 / lookahead_threads=1 / sliced_threads=0 / nr=0 / decimate=0 / interlaced=0 / bluray_compat=0 / constrained_intra=0 / bframes=6 / b_pyramid=2 / b_adapt=2 / b_bias=0 / direct=3 / weightb=1 / open_gop=0 / weightp=2 / keyint=240 / keyint_min=23 / scenecut=40 / intra_refresh=0 / rc=2pass / mbtree=0 / bitrate=8255 / ratetol=1.0 / qcomp=0.60 / qpmin=0 / qpmax=69 / qpstep=4 / cplxblur=20.0 / qblur=0.5 / ip_ratio=1.40 / pb_ratio=1.30 / aq=1:0.70
Язык : English
Default : Да
Forced : Нет
Аудио #1
Идентификатор : 2
Формат : AC-3
Формат/Информация : Audio Coding 3
Расширение режима : CM (complete main)
Параметр Endianness формата : Big
Идентификатор кодека : A_AC3
Продолжительность : 1 ч. 48 м.
Вид битрейта : Постоянный
Битрейт : 448 Кбит/сек
Каналы : 6 каналов
Расположение каналов : Front: L C R, Side: L R, LFE
Частота : 48,0 КГц
Битовая глубина : 16 бит
Метод сжатия : С потерями
Размер потока : 348 Мбайт (4%)
Заголовок : (Rus) Дмитрий «Гоблин» Пучков
Язык : Russian
Default : Да
Forced : Нет
Аудио #2
Идентификатор : 3
Формат : AC-3
Формат/Информация : Audio Coding 3
Расширение режима : CM (complete main)
Параметр Endianness формата : Big
Идентификатор кодека : A_AC3
Продолжительность : 1 ч. 48 м.
Вид битрейта : Постоянный
Битрейт : 448 Кбит/сек
Каналы : 6 каналов
Расположение каналов : Front: L C R, Side: L R, LFE
Частота : 48,0 КГц
Битовая глубина : 16 бит
Метод сжатия : С потерями
Размер потока : 348 Мбайт (4%)
Заголовок : (Rus) MVO Tycoon Studio
Язык : Russian
Default : Нет
Forced : Нет
Аудио #3
Идентификатор : 4
Формат : AC-3
Формат/Информация : Audio Coding 3
Расширение режима : CM (complete main)
Параметр Endianness формата : Big
Идентификатор кодека : A_AC3
Продолжительность : 1 ч. 48 м.
Вид битрейта : Постоянный
Битрейт : 448 Кбит/сек
Каналы : 6 каналов
Расположение каналов : Front: L C R, Side: L R, LFE
Частота : 48,0 КГц
Битовая глубина : 16 бит
Метод сжатия : С потерями
Размер потока : 348 Мбайт (4%)
Заголовок : (Rus ) MVO Total DVD
Язык : Russian
Default : Нет
Forced : Нет
Аудио #4
Идентификатор : 5
Формат : AC-3
Формат/Информация : Audio Coding 3
Расширение режима : CM (complete main)
Параметр Endianness формата : Big
Идентификатор кодека : A_AC3
Продолжительность : 1 ч. 48 м.
Вид битрейта : Постоянный
Битрейт : 448 Кбит/сек
Каналы : 6 каналов
Расположение каналов : Front: L C R, Side: L R, LFE
Частота : 48,0 КГц
Битовая глубина : 16 бит
Метод сжатия : С потерями
Размер потока : 348 Мбайт (4%)
Заголовок : (Rus) MVO R5 (Союз)
Язык : Russian
Default : Нет
Forced : Нет
Аудио #5
Идентификатор : 6
Формат : AC-3
Формат/Информация : Audio Coding 3
Расширение режима : CM (complete main)
Параметр Endianness формата : Big
Идентификатор кодека : A_AC3
Продолжительность : 1 ч. 48 м.
Вид битрейта : Постоянный
Битрейт : 448 Кбит/сек
Каналы : 6 каналов
Расположение каналов : Front: L C R, Side: L R, LFE
Частота : 48,0 КГц
Битовая глубина : 16 бит
Метод сжатия : С потерями
Размер потока : 348 Мбайт (4%)
Заголовок : Eng
Язык : English
Default : Нет
Forced : Нет
Текст #1
Идентификатор : 7
Формат : UTF-8
Идентификатор кодека : S_TEXT/UTF8
Идентификатор кодека/Информация : UTF-8 Plain Text
Заголовок : Rus
Язык : Russian
Default : Нет
Forced : Нет
Текст #2
Идентификатор : 8
Формат : UTF-8
Идентификатор кодека : S_TEXT/UTF8
Идентификатор кодека/Информация : UTF-8 Plain Text
Заголовок : Eng
Язык : English
Default : Нет
Forced : Нет

x264

x264 [info]: frame I:1087 Avg QP:17.13 size:145308
x264 [info]: frame P:33104 Avg QP:19.62 size: 72709
x264 [info]: frame B:121817 Avg QP:21.64 size: 34023
[Профиль] [ЛС]
Кто просматривает тему:

Форум Тема Автор Размер
Аниме [HD 720p, 1080p] Ди.Грэй-мен: Святые / D.Gray-man Hallow TV 2 (Серии 1- 13 из 13) (Асино Ёсихару) [2016, Приключения, комедия, фэнтези, мультсериал , HDTVRip-AVC 720р] [MVO] [Anidub,AniLibria] [DD5.1] [Ru... Враг Нароода 6.39 GB
Фильмы (HD Rips | 720p, 1080p) Канун Дня Всех Святых 2 / All Hallows' Eve 2 (2015) WEB-DL 720p | L2 достали все 2.71 GB
Фильмы 2015 года Канун Дня Всех Святых 2 / All Hallows' Eve 2 (2015) WEB-DLRip | L2 достали все 1.37 GB
Фильмы 2014 года Они были солдатами: Пустота / Святые и солдаты: Пустота / Saints and Soldiers: The Void (2014) BDRip | L1 достали все 1.46 GB
Разное Православные Храмы. Путешествие по святым местам [001-192] (2012-2016) PDF BOSS 5.01 GB
Фильмы (HD Rips | 720p, 1080p) Святые из Бундока 2: День всех святых / The Boondock Saints 2: All Saints Day (Трой Даффи / Troy Duffy) [2009, США, боевик, комедия, драма, криминал, BDRemux 1080p] [Director\'s Cut] VO (den904) +... bot 30.31 GB
Фильмы 2010 года Святые роллеры / Святоши / Holy Rollers (Кевин Аш / Kevin Asch) [2010, США, драма, биография, криминал, BDRip] VO (zamez) TorrentFilm 743 MB
Фильмы 2010 года Святые роллеры / Святоши / Holy Rollers (Кевин Аш / Kevin Asch) [2010, США, драма, криминал, биография, BDRip] VO (zamez) + Sub Rus + Original Eng TorrentFilm 1.73 GB
Показать сообщения:    

Текущее время: Сегодня 04:46

Часовой пояс: GMT



Вы не можете начинать темы
Вы не можете отвечать на сообщения
Вы не можете редактировать свои сообщения
Вы не можете удалять свои сообщения
Вы не можете голосовать в опросах
Вы не можете прикреплять файлы к сообщениям
Вы не можете скачивать файлы