Святой Филипп Нери: Я предпочитаю рай / Preferisco il Paradiso (Джакомо Кампиотти / Giacomo Campiotti) [2010, Италия, Биография, Драма, DVDRip] Sub Rus + Original Ita

 
Автор Сообщение

painkiller ®

Стаж: 2 года 3 месяца

Сообщений: 582



Награды: Нет

Торрент-статистика

Создавать темы 18-Авг-2014 01:02

[Цитировать]

Святой Филипп Нери: Я предпочитаю рай / Preferisco il Paradiso
Страна: Италия
Жанр: Биография, Драма
Год выпуска: 2010
Продолжительность: 3:20:00
Перевод: Субтитры
Cубтитры: русские
Оригинальная аудиодорожка: итальянский
Режиссер: Джакомо Кампиотти / Giacomo Campiotti
В ролях: Джиджи Пройетти, Роберто Читран, Серджио Фиорентини, Стефано Френьи, Франческо Грифони, Себастиано Ло Монако, Франческо Сальви.
Описание: Это фильм о жизни святого Филиппа Нери (1515-1595) и совершенных им чудесах. Действие фильма разворачивается в Италии в XVI веке. Вся земная жизнь святого является примером бескорыстной любви и милосердия. Его называют « святым радости», «римским апостолом», «божьим шутом».
Доп. информация: К святому обращаются за помощью при депрессии, женском бесплодии, болезнях рук и ног. Он является покровителем детей и молодежи.
Качество видео: DVDRip
Формат видео: AVI
Видео: XviD; 624x352, 1554 kbps, 25 fps
Аудио: MPEG Layer 3, 128.00 kbps avg, 2 ch
Формат субтитров: softsub (SRT)

MediaInfo

General
Complete name : F:\Preferisco il Paradiso\Preferisco il Paradiso.avi
Format : AVI
Format/Info : Audio Video Interleave
File size : 2.51 GiB
Duration : 3h 20 mn
Overall bit rate : 1 692 Kbps
Movie name : Preferisco il Paradiso
Director : Giacomo Campiotti
Encoded by : ardeides for TNT Village
Genre : Religioso
Law rating : Per tutti
Writing application : VirtualDub build 32817/releaseVirtualDubMod 1.5.10.2 (build 2542/release)
Original source medium : Satrip
Copyright : RAI
Video
ID : 0
Format : MPEG-4 Visual
Format settings, BVOP : Yes
Format settings, QPel : No
Format settings, GMC : No warppoints
Format settings, Matrix : Default (H.263)
Codec ID : DX50
Codec ID/Hint : DivX 5
Duration : 3h 20mn
Bit rate : 1 555 Kbps
Width : 624 pixels
Height : 352 pixels
Display aspect ratio : 16:9
Frame rate : 25.000 fps
Color space : YUV
Chroma subsampling : 4:2:0
Bit depth : 8 bits
Scan type : Progressive
Compression mode : Lossy
Bits/(Pixel*Frame) : 0.283
Stream size : 1.16 GiB (92%)
Writing library : DivX 6.8.5 (UTC 2009-08-20)
Audio
ID : 1
Format : MPEG Audio
Format version : Version 1
Format profile : Layer 3
Mode : Joint stereo
Mode extension : MS Stereo
Codec ID : 55
Codec ID/Hint : MP3
Duration : 1h 46mn
Bit rate mode : Constant
Bit rate : 128 Kbps
Channel(s) : 2 channels
Sampling rate : 48.0 KHz
Compression mode : Lossy
Stream size : 97.5 MiB (8%)
Alignment : Split accross interleaves
Interleave, duration : 40 ms (1.00 video frame)
Interleave, preload duration : 500 ms
Language : Italiano

Скриншот c названием фильма

Скриншоты

Образец субтитров

1
00:00:57,800 --> 00:00:59,440
Ты что, спал на дереве?
2
00:01:01,520 --> 00:01:02,720
Да, спал.
3
00:01:06,440 --> 00:01:08,520
Кое-кто меня разбудил.
4
00:01:12,520 --> 00:01:13,640
Едешь в Рим?
5
00:01:14,320 --> 00:01:16,080
Да, впервые еду в Рим.
6
00:01:16,560 --> 00:01:17,600
Но только проездом.
7
00:01:18,720 --> 00:01:21,120
Поеду миссионером в Индию.
8
00:01:22,000 --> 00:01:24,280
Вместе с иезуитами падре Игнатия де Лойола.
9
00:01:25,840 --> 00:01:26,960
Сейчас спущусь.
10
00:01:30,440 --> 00:01:33,080
Думаю, что ни в какую Индию ты не поедешь, Филипп.
11
00:01:33,560 --> 00:01:35,760
Как не поеду?
Еще как поеду.
12
00:01:37,160 --> 00:01:39,120
Откуда ты знаешь, как меня зовут?
13
00:01:43,160 --> 00:01:44,200
Ты где?
14
00:01:47,040 --> 00:01:48,080
Где ты?
15
00:02:02,560 --> 00:02:04,280
Наверное, померещилось от голода.
16
00:02:15,060 --> 00:02:17,960
Я предпочитаю рай.
17
00:02:27,000 --> 00:02:28,800
Добрый день.
18
00:02:28,800 --> 00:02:31,040
День добрый, падре.
Хотите воды?
19
00:02:31,080 --> 00:02:32,800
Да, спасибо.
20
00:02:43,320 --> 00:02:44,720
Хорошая вода. Спасибо.
21
00:02:46,880 --> 00:02:47,960
Благослови тебя Господь.
22
00:02:48,000 --> 00:02:49,040
- Спасибо, падре.
23
00:02:59,360 --> 00:03:00,400
Рим!
24
00:03:07,420 --> 00:03:09,000
Не проходите по этой улице!
25
00:03:09,000 --> 00:03:10,440
Спасибо.
26
00:03:10,440 --> 00:03:11,960
Вода прохладная.
27
00:03:12,000 --> 00:03:13,280
Благослови тебя Бог.
28
00:03:14,720 --> 00:03:17,400
Простите!
Дайте хлеба, пожалуйста.
29
00:03:17,440 --> 00:03:19,160
Какого хлеба?
Где ты увидел хлеб?
30
00:03:19,200 --> 00:03:21,840
Чего тебе?
Кто тебя здесь знает? Уходи отсюда!
--
[Профиль] [ЛС]

Создавать темы 06-Авг-2015 23:06 (спустя 11 месяцев 19 дней)

Топик был перенесен из форума Фильмы до 2014 года в форум Фильмы до 2012 года
sergej644
 

Создавать темы 12-Июн-2016 07:54 (спустя 1 год 9 месяцев)

Топик был перенесен из форума Фильмы 2011 года в форум Фильмы 2010 года
Russian Mafia
 
Кто просматривает тему:

Форум Тема Автор Размер
Rock (Rock)Океан Ельзи (О.Е.)(Святослав Вакарчук) - Дискография - 19 релизов 1998-2014, [FLAC (image+.cue), lossless] sergej644 6.87 GB
Боевики, детективы, триллеры Акунин Борис - Смерть на брудершафт. Фильма восьмая. Ничего святого [Сергей Чонишвили, 2012 г., 256 kbps, MP3] sergej644 499 MB
Фильмы (HD Rips | 720p, 1080p) Владение 18 (Святослав Подгаевский) [2013, Россия, ужасы, триллер, детектив, Blu-ray disc 1080p] [RUS] TorrentFilm 20.53 GB
Фильмы (DVD 5/9) Владение 18 (Святослав Подгаевский) [2013, Россия, ужасы, триллер, детектив, DVD5 (Сжатый)] reversefile 4.18 GB
Фильмы (DVD 5/9) Владение 18 (Святослав Подгаевский) [2013, Россия, ужасы, триллер, детектив, DVD9] reversefile 4.84 GB
Фильмы (HD Rips | 720p, 1080p) День Святого Валентина / Valentine's Day (2010) BDRip 720p Белочка 7.45 GB
Фильмы 2010 года День Святого Валентина / Valentine\'s Day (Гэрри Маршалл / Garry Marshall) [2010, США, мелодрама, комедия, BDRip] Dub painkiller 1.45 GB
Отечественная Классика Николай Семенович Лесков - Святочные рассказы [Герасимов Вячеслав, 2006] Magnat 665 MB
Показать сообщения:    

Текущее время: Сегодня 12:28

Часовой пояс: GMT



Вы не можете начинать темы
Вы не можете отвечать на сообщения
Вы не можете редактировать свои сообщения
Вы не можете удалять свои сообщения
Вы не можете голосовать в опросах
Вы не можете прикреплять файлы к сообщениям
Вы не можете скачивать файлы