Святой Джон из Лас-Вегаса / Saint John of Las Vegas (Хуэ Родс / Hue Rhodes) [2009, США, комедия, драма, HDRip] Dub

 
Автор Сообщение

TorrentFilm ®

Пол:

Стаж: 2 года

Сообщений: 7741



Награды: Нет

Торрент-статистика

Создавать темы 24-Апр-2015 00:04

[Цитировать]

Святой Джон из Лас-Вегаса / Saint John of Las Vegas

Страна: США
Жанр: комедия, драма
Год выпуска: 2009
Продолжительность: 01:24:51
Перевод: Профессиональный (дублированный)
Cубтитры: нет

Режиссер: Хуэ Родс / Hue Rhodes
В ролях: Стив Бушеми, Романи Малко, Сара Силверман, Питер Динклэйдж, Тим Блейк Нельсон, Джон Чо, Эммануэль Шрики, Авива, Валери Адамс, Изабель Арчулета
Описание: У страхового агента Джона есть пагубная привычка — он забывает обо всем на свете, когда видит стол казино или лотерейный билет. Чтобы не искушать судьбу, он вынужден сменить место жительства и покинуть Лас Вегас. Но босс компании решает испытать сотрудника на прочность и отправляет Джона в командировку в Лас Вегас. Джону предстоит расследовать обстоятельства просшествия, в результате которого стриптизерша получила производственную травму и теперь прикована к инвалидной коляске. Стриптизерша требует компенсации потерянных заработков и страховому агенту необходимо восстановить детальную картину случившегося. Сможет ли Джон устоять перед искушениями, вернувшись в город казино и греха?…
Качество видео: HDRip [Svjat0j.Dzh0n.iz.Las.Vegasa.D.2009.BDRip.1080p.Deadmauvlad]
Формат видео: AVI
Видео: 720x304 (2.37:1), 23.976 fps, XviD build 73 ~2061 kbps avg, 0.39 bit/pixel
Аудио: 48 kHz, AC3 Dolby Digital, 3/2 (L,C,R,l,r) + LFE ch, ~384 kbps

MediaInfo

Полное имя : H:\Saint.John.of.Las.Vegas.2009.hdrip_[1.46]_[teko].avi
Формат : AVI
Формат/Информация : Audio Video Interleave
Размер файла : 1,46 Гбайт
Продолжительность : 1 ч. 24 м.
Общий поток : 2455 Кбит/сек
Программа кодирования : VirtualDubMod 1.5.10.3 | www.virtualdub-fr.org || (build 2550/release)
Библиотека кодирования : VirtualDubMod build 2550/release
Видео
Идентификатор : 0
Формат : MPEG-4 Visual
Профиль формата : Advanced Simple@L5
Параметр BVOP формата : 1
Параметр QPel формата : Нет
Параметр GMC формата : Без точки перехода
Параметр матрицы формата : Выборочная
Идентификатор кодека : XVID
Идентификатор кодека/Подсказка : XviD
Продолжительность : 1 ч. 24 м.
Битрейт : 2062 Кбит/сек
Ширина : 720 пикселей
Высота : 304 пикселя
Соотношение сторон : 2,35:1
Частота кадров : 23,976 кадра/сек
Цветовое пространство : YUV
Субдискретизация насыщенности : 4:2:0
Битовая глубина : 8 бит
Тип развёртки : Прогрессивная
Метод сжатия : С потерями
Бит/(Пиксели*Кадры) : 0.393
Размер потока : 1,22 Гбайт (84%)
Библиотека кодирования : XviD 73
Аудио
Идентификатор : 1
Формат : AC-3
Формат/Информация : Audio Coding 3
Расширение режима : CM (complete main)
Параметр Endianness формата : Big
Идентификатор кодека : 2000
Продолжительность : 1 ч. 24 м.
Вид битрейта : Постоянный
Битрейт : 384 Кбит/сек
Каналы : 6 каналов
Расположение каналов : Front: L C R, Side: L R, LFE
Частота : 48,0 КГц
Битовая глубина : 16 бит
Метод сжатия : С потерями
Размер потока : 233 Мбайт (16%)
Выравнивание : Разделение по промежуткам
Продолжительность промежутка : 42 мс. (1,00 видеокадр)
Время предзагрузки промежутка : 500 мс.
Релиз группы:
--
[Профиль] [ЛС]

Создавать темы 06-Авг-2015 22:35 (спустя 3 месяца 12 дней)

Топик был перенесен из форума Фильмы до 2014 года в форум Фильмы до 2012 года
sergej644
 

Создавать темы 12-Июн-2016 08:49 (спустя 1 год 1 месяц)

Топик был перенесен из форума Фильмы 2011 года в форум Фильмы 2009 года
Russian Mafia
 
Кто просматривает тему:

Форум Тема Автор Размер
Rock (Rock)Океан Ельзи (О.Е.)(Святослав Вакарчук) - Дискография - 19 релизов 1998-2014, [FLAC (image+.cue), lossless] sergej644 6.87 GB
Боевики, детективы, триллеры Акунин Борис - Смерть на брудершафт. Фильма восьмая. Ничего святого [Сергей Чонишвили, 2012 г., 256 kbps, MP3] sergej644 499 MB
Фильмы (HD Rips | 720p, 1080p) Владение 18 (Святослав Подгаевский) [2013, Россия, ужасы, триллер, детектив, Blu-ray disc 1080p] [RUS] TorrentFilm 20.53 GB
Фильмы (DVD 5/9) Владение 18 (Святослав Подгаевский) [2013, Россия, ужасы, триллер, детектив, DVD5 (Сжатый)] reversefile 4.18 GB
Фильмы (DVD 5/9) Владение 18 (Святослав Подгаевский) [2013, Россия, ужасы, триллер, детектив, DVD9] reversefile 4.84 GB
Фильмы (HD Rips | 720p, 1080p) День Святого Валентина / Valentine's Day (2010) BDRip 720p Белочка 7.45 GB
Фильмы 2010 года День Святого Валентина / Valentine\'s Day (Гэрри Маршалл / Garry Marshall) [2010, США, мелодрама, комедия, BDRip] Dub painkiller 1.45 GB
Отечественная Классика Николай Семенович Лесков - Святочные рассказы [Герасимов Вячеслав, 2006] Magnat 665 MB
Показать сообщения:    

Текущее время: Сегодня 23:31

Часовой пояс: GMT



Вы не можете начинать темы
Вы не можете отвечать на сообщения
Вы не можете редактировать свои сообщения
Вы не можете удалять свои сообщения
Вы не можете голосовать в опросах
Вы не можете прикреплять файлы к сообщениям
Вы не можете скачивать файлы