Святой Винсент / St. Vincent (2014) BDRip 1080p | L1

 
Автор Сообщение

sergej644 ®

Пол:

Стаж: 4 года 11 месяцев

Сообщений: 6038

Откуда: Soviet Union



Награды: Нет

Торрент-статистика

Создавать темы 16-Фев-2015 18:33

[Цитировать]

Информация о фильме
Название: Святой Винсент
Оригинальное название: St. Vincent
Год выхода: 2014
Жанр: Драма, комедия
Режиссер: Тед Мелфи
В ролях: Билл Мюррэй, Мелисса МакКарти, Наоми Уоттс, Крис О`Дауд, Терренс Ховард, Джейден Либерер, Кимберли Куинн, Ленни Венито, Нэйт Корддр, Дарио Бароссо
О фильме: Мэгги — одинокая женщина, которая после развода со своим супругом вынуждена в одиночку воспитывать двенадцатилетнего сына Оливера. Ей приходится самой зарабатывать на жизнь, что мешает ей постоянно находится вместе с ребенком. Чтобы не оставлять Оливера одного, она принимает предложение их соседа, пожилого ветерана войны Винсента, который соглашается присмотреть за парнем за одиннадцать долларов в час, когда это необходимо. У Мэгги не остается другого выбора, как воспользоваться услугами их соседа, хотя он явно не внушает ей доверия. Стареющий Винсент является далеко не святым человеком: он любит выпить, делать ставки на скачках и проводить время в компании женщин легкого поведения. Однако Оливеру больше по душе именно его компания, чем проповеди святого отца в школе, который учит детей жить без греха...

Страна: США / Chernin Entertainment, Crescendo Productions, Goldenlight Films, The Weinstein Company LLC
Продолжительность: 01:42:26
Перевод: Любительский (одноголосый, закадровый) - datynet
Файл
Качество: BDRip 1080p
Формат: MKV
Видео: MPEG4/AVC, 10.000 Мбит/сек, 1912х1032 (1.85:1), 23.976 кадра/сек
Аудио 1: AC3, 6 каналов, 384 Кбит/сек | Русский
Аудио 2: AC3, 6 каналов, 448 Кбит/сек | Английский
Аудио 3: DTS-HD MA, 6 каналов, 3729/1509 Кбит/сек | Английский
Субтитры: Английские (Full, SDH), немецкие
Навигация по главам: Есть

MediaInfo:

Общее
Уникальный идентификатор : 208661429940973928145481469771589365182 (0x9CFABAC8208D7BB2AB47B16DB2502DBE)
Полное имя : St. Vincent. (2014) BDRip 1080p.mkv
Формат : Matroska
Версия формата : Version 2
Размер файла : 10,4 Гбайт
Продолжительность : 1 ч. 42 м.
Режим общего битрейта : Переменный
Общий поток : 14,6 Мбит/сек
Название фильма : St. Vincent. 2014
Дата кодирования : UTC 2015-02-04 10:21:02
Программа кодирования : mkvmerge v5.8.0 ('No Sleep / Pillow') built on Sep 2 2012 15:37:04
Библиотека кодирования : libebml v1.2.3 + libmatroska v1.3.0
Видео
Идентификатор : 1
Формат : AVC
Формат/Информация : Advanced Video Codec
Профиль формата : High@L4.1
Параметр CABAC формата : Да
Параметр ReFrames формата : 4 кадра
Идентификатор кодека : V_MPEG4/ISO/AVC
Продолжительность : 1 ч. 42 м.
Номинальный битрейт : 10000 Кбит/сек
Ширина : 1912 пикселей
Высота : 1032 пикселя
Соотношение сторон : 1,85:1
Режим частоты кадров : Постоянный
Частота кадров : 23,976 кадра/сек
Цветовое пространство : YUV
Субдискретизация насыщенности : 4:2:0
Битовая глубина : 8 бит
Тип развёртки : Прогрессивная
Бит/(Пиксели*Кадры) : 0.211
Заголовок : TBS
Библиотека кодирования : x264 core 144 r2525 40bb568
Настройки программы : cabac=1 / ref=4 / deblock=1:-3:-3 / analyse=0x3:0x133 / me=umh / subme=10 / psy=1 / psy_rd=1.03:0.10 / mixed_ref=1 / me_range=48 / chroma_me=1 / trellis=2 / 8x8dct=1 / cqm=0 / deadzone=21,11 / fast_pskip=1 / chroma_qp_offset=-3 / threads=12 / lookahead_threads=2 / sliced_threads=0 / nr=0 / decimate=1 / interlaced=0 / bluray_compat=0 / constrained_intra=0 / bframes=8 / b_pyramid=2 / b_adapt=2 / b_bias=0 / direct=3 / weightb=1 / open_gop=0 / weightp=2 / keyint=240 / keyint_min=23 / scenecut=40 / intra_refresh=0 / rc_lookahead=50 / rc=2pass / mbtree=1 / bitrate=10000 / ratetol=1.0 / qcomp=0.60 / qpmin=0 / qpmax=30 / qpstep=4 / cplxblur=20.0 / qblur=0.5 / vbv_maxrate=30000 / vbv_bufsize=38000 / nal_hrd=none / filler=0 / ip_ratio=1.40 / aq=1:1.00
Язык : English
Default : Да
Forced : Нет
Аудио #1
Идентификатор : 2
Формат : AC-3
Формат/Информация : Audio Coding 3
Расширение режима : CM (complete main)
Параметр Endianness формата : Big
Идентификатор кодека : A_AC3
Продолжительность : 1 ч. 42 м.
Вид битрейта : Постоянный
Битрейт : 384 Кбит/сек
Каналы : 6 каналов
Расположение каналов : Front: L C R, Side: L R, LFE
Частота : 48,0 КГц
Битовая глубина : 16 бит
Метод сжатия : С потерями
Размер потока : 281 Мбайт (3%)
Заголовок : L1 | datynet - А. Агапов
Язык : Russian
Default : Да
Forced : Нет
Аудио #2
Идентификатор : 3
Формат : AC-3
Формат/Информация : Audio Coding 3
Расширение режима : CM (complete main)
Параметр Endianness формата : Big
Идентификатор кодека : A_AC3
Продолжительность : 1 ч. 42 м.
Вид битрейта : Постоянный
Битрейт : 448 Кбит/сек
Каналы : 6 каналов
Расположение каналов : Front: L C R, Side: L R, LFE
Частота : 48,0 КГц
Битовая глубина : 16 бит
Метод сжатия : С потерями
Размер потока : 328 Мбайт (3%)
Заголовок : AC3 | Original
Язык : English
Default : Нет
Forced : Нет
Аудио #3
Идентификатор : 4
Формат : DTS
Формат/Информация : Digital Theater Systems
Профиль формата : MA / Core
Режим : 16
Параметр Endianness формата : Big
Идентификатор кодека : A_DTS
Продолжительность : 1 ч. 42 м.
Вид битрейта : Переменный
Битрейт : Неизвестно / 1509 Кбит/сек
Каналы : 6 каналов
Расположение каналов : Front: L C R, Side: L R, LFE
Частота : 48,0 КГц
Битовая глубина : 24 бит
Метод сжатия : Без потерь / Lossy
Заголовок : DTS-HD MA | Original
Язык : English
Default : Нет
Forced : Нет
Текст #1
Идентификатор : 5
Формат : UTF-8
Идентификатор кодека : S_TEXT/UTF8
Идентификатор кодека/Информация : UTF-8 Plain Text
Заголовок : Full
Язык : English
Default : Нет
Forced : Нет
Текст #2
Идентификатор : 6
Формат : UTF-8
Идентификатор кодека : S_TEXT/UTF8
Идентификатор кодека/Информация : UTF-8 Plain Text
Заголовок : SDH
Язык : English
Default : Нет
Forced : Нет
Текст #3
Идентификатор : 7
Формат : UTF-8
Идентификатор кодека : S_TEXT/UTF8
Идентификатор кодека/Информация : UTF-8 Plain Text
Заголовок : Full
Язык : Dutch
Default : Нет
Forced : Нет
Меню
00:00:00.000 : en:00:00:00.000
00:07:49.010 : en:00:07:49.010
00:14:19.150 : en:00:14:19.150
00:18:52.006 : en:00:18:52.006
00:25:53.093 : en:00:25:53.093
00:33:26.171 : en:00:33:26.171
00:41:03.920 : en:00:41:03.920
00:47:41.150 : en:00:47:41.150
00:56:05.320 : en:00:56:05.320
01:03:48.616 : en:01:03:48.616
01:09:43.262 : en:01:09:43.262
01:14:10.404 : en:01:14:10.404
01:20:18.063 : en:01:20:18.063
01:28:48.281 : en:01:28:48.281
01:34:46.055 : en:01:34:46.055
01:37:19.459 : en:01:37:19.459

Скриншоты

[Профиль] [ЛС]
Кто просматривает тему:

Форум Тема Автор Размер
Rock (Rock)Океан Ельзи (О.Е.)(Святослав Вакарчук) - Дискография - 19 релизов 1998-2014, [FLAC (image+.cue), lossless] sergej644 6.87 GB
Боевики, детективы, триллеры Акунин Борис - Смерть на брудершафт. Фильма восьмая. Ничего святого [Сергей Чонишвили, 2012 г., 256 kbps, MP3] sergej644 499 MB
Фильмы (HD Rips | 720p, 1080p) Владение 18 (Святослав Подгаевский) [2013, Россия, ужасы, триллер, детектив, Blu-ray disc 1080p] [RUS] TorrentFilm 20.53 GB
Фильмы (DVD 5/9) Владение 18 (Святослав Подгаевский) [2013, Россия, ужасы, триллер, детектив, DVD5 (Сжатый)] reversefile 4.18 GB
Фильмы (DVD 5/9) Владение 18 (Святослав Подгаевский) [2013, Россия, ужасы, триллер, детектив, DVD9] reversefile 4.84 GB
Фильмы (HD Rips | 720p, 1080p) День Святого Валентина / Valentine's Day (2010) BDRip 720p Белочка 7.45 GB
Фильмы 2010 года День Святого Валентина / Valentine\'s Day (Гэрри Маршалл / Garry Marshall) [2010, США, мелодрама, комедия, BDRip] Dub painkiller 1.45 GB
Отечественная Классика Николай Семенович Лесков - Святочные рассказы [Герасимов Вячеслав, 2006] Magnat 665 MB
Показать сообщения:    

Текущее время: Сегодня 14:30

Часовой пояс: GMT



Вы не можете начинать темы
Вы не можете отвечать на сообщения
Вы не можете редактировать свои сообщения
Вы не можете удалять свои сообщения
Вы не можете голосовать в опросах
Вы не можете прикреплять файлы к сообщениям
Вы не можете скачивать файлы