Святой Августин / Restless Heart: Confessions of Augustine (Кристиан Дюге / Christian Duguay) [2010, Германия, Италия, Драма, Исторический, Биография, DVDRip] [DVD-версия] MVO (ГТРК "Культура") + Sub Spa Rus + Original Eng

 
Автор Сообщение

painkiller ®

Стаж: 2 года 3 месяца

Сообщений: 582



Награды: Нет

Торрент-статистика

Создавать темы 16-Авг-2014 01:26

[Цитировать]

Святой Августин / Restless Heart: Confessions of Augustine / DVD-версия
Страна: Германия, Италия
Жанр: Драма, Исторический, Биография
Год выпуска: 2010
Продолжительность: 01:36:54 + 01:42:10
Перевод: Профессиональный (многоголосый закадровый) ГТРК "Культура"
Cубтитры: русские, испанские
Оригинальная аудиодорожка: английский
Режиссер: Кристиан Дюге / Christian Duguay
В ролях: Алессандро Прециози, Франко Неро, Моника Гуэрриторе, Геральд Александр Хельд, Йоханнес Брэндрап, Кэти Луиз Саундерс, Серена Росси, Себастьян Штробель, Дитрих Холлиндербаумер
Описание: Фильм повествует о влиятельном богослове, одном из отцов Церкви - Святом Августине (в католичестве) или Августине Блаженном (в Православии). Перед зрителем предстает вся жизнь Аврелия Августина - с подросткового возраста до самой смерти в возрасте 76 лет. Сценарий киноленты основан на двух самых знаменитых произведениях еписокпа Гиппонского - "Исповедь" и "О граде Божьем".
Доп. информация: Рип сделан с DVD9, найденном в сети (скоро будет выложен и он). Озвучка взят из этой раздачи, однако на DVD есть некоторые сцены не озвученные ГТРК "Культура", их перевод сделан субтитрами. Также отдельно в раздаче присутствуют полные русские субтитры из этой раздачи (дополненные и немного подредактированные) и оригинальная английская дорожка.
Сэмпл: http://rusfolder.com/40792531
Качество видео: DVDRip
Формат видео: AVI
Видео: Xvid 720x400 25fps 1955 Kbps и 1845 Kbps
Аудио: русский, Dolby AC3 48000Hz stereo 192kbps
Аудио 2: английский, Dolby AC3 48000Hz stereo 192kbps
Формат субтитров: softsub (SRT)

MediaInfo 1-ой серии

General
Complete name : Saint Augustine-1.avi
Format : AVI
Format/Info : Audio Video Interleave
File size : 1.46 GiB
Duration : 1h 36mn
Overall bit rate : 2 157 Kbps
Writing application : VirtualDubMod 1.5.10.2 (build 2540/release)
Writing library : VirtualDubMod build 2540/release
Video
ID : 0
Format : MPEG-4 Visual
Format profile : Advanced Simple@L5
Format settings, BVOP : Yes
Format settings, QPel : No
Format settings, GMC : No warppoints
Format settings, Matrix : Default (MPEG)
Codec ID : XVID
Codec ID/Hint : XviD
Duration : 1h 36mn
Bit rate : 1 955 Kbps
Width : 720 pixels
Height : 400 pixels
Display aspect ratio : 16:9
Frame rate : 25.000 fps
Color space : YUV
Chroma subsampling : 4:2:0
Bit depth : 8 bits
Scan type : Progressive
Compression mode : Lossy
Bits/(Pixel*Frame) : 0.272
Stream size : 1.32 GiB (91%)
Writing library : XviD 64
Audio
ID : 1
Format : AC-3
Format/Info : Audio Coding 3
Mode extension : CM (complete main)
Format settings, Endianness : Big
Codec ID : 2000
Duration : 1h 36mn
Bit rate mode : Constant
Bit rate : 192 Kbps
Channel(s) : 2 channels
Channel positions : Front: L R
Sampling rate : 48.0 KHz
Bit depth : 16 bits
Compression mode : Lossy
Stream size : 133 MiB (9%)
Alignment : Split accross interleaves
Interleave, duration : 40 ms (1.00 video frame)
Interleave, preload duration : 500 ms

MediaInfo 2-ой серии

General
Complete name : Saint Augustine-2.avi
Format : AVI
Format/Info : Audio Video Interleave
File size : 1.46 GiB
Duration : 1h 42mn
Overall bit rate : 2 047 Kbps
Writing application : VirtualDubMod 1.5.10.2 (build 2540/release)
Writing library : VirtualDubMod build 2540/release
Video
ID : 0
Format : MPEG-4 Visual
Format profile : Advanced Simple@L5
Format settings, BVOP : Yes
Format settings, QPel : No
Format settings, GMC : No warppoints
Format settings, Matrix : Default (MPEG)
Codec ID : XVID
Codec ID/Hint : XviD
Duration : 1h 42mn
Bit rate : 1 845 Kbps
Width : 720 pixels
Height : 400 pixels
Display aspect ratio : 16:9
Frame rate : 25.000 fps
Color space : YUV
Chroma subsampling : 4:2:0
Bit depth : 8 bits
Scan type : Progressive
Compression mode : Lossy
Bits/(Pixel*Frame) : 0.256
Stream size : 1.32 GiB (90%)
Writing library : XviD 64
Audio
ID : 1
Format : AC-3
Format/Info : Audio Coding 3
Mode extension : CM (complete main)
Format settings, Endianness : Big
Codec ID : 2000
Duration : 1h 42mn
Bit rate mode : Constant
Bit rate : 192 Kbps
Channel(s) : 2 channels
Channel positions : Front: L R
Sampling rate : 48.0 KHz
Bit depth : 16 bits
Compression mode : Lossy
Stream size : 140 MiB (9%)
Alignment : Split accross interleaves
Interleave, duration : 40 ms (1.00 video frame)
Interleave, preload duration : 500 ms

Скриншот c названием фильма

Скриншоты

[Профиль] [ЛС]

Создавать темы 06-Авг-2015 23:10 (спустя 11 месяцев 21 день)

Топик был перенесен из форума Фильмы до 2014 года в форум Фильмы до 2012 года
sergej644
 

Создавать темы 12-Июн-2016 07:54 (спустя 1 год 9 месяцев)

Топик был перенесен из форума Фильмы 2011 года в форум Фильмы 2010 года
Russian Mafia
 
Кто просматривает тему:

Форум Тема Автор Размер
Rock (Rock)Океан Ельзи (О.Е.)(Святослав Вакарчук) - Дискография - 19 релизов 1998-2014, [FLAC (image+.cue), lossless] sergej644 6.87 GB
Боевики, детективы, триллеры Акунин Борис - Смерть на брудершафт. Фильма восьмая. Ничего святого [Сергей Чонишвили, 2012 г., 256 kbps, MP3] sergej644 499 MB
Фильмы (HD Rips | 720p, 1080p) Владение 18 (Святослав Подгаевский) [2013, Россия, ужасы, триллер, детектив, Blu-ray disc 1080p] [RUS] TorrentFilm 20.53 GB
Фильмы (DVD 5/9) Владение 18 (Святослав Подгаевский) [2013, Россия, ужасы, триллер, детектив, DVD5 (Сжатый)] reversefile 4.18 GB
Фильмы (DVD 5/9) Владение 18 (Святослав Подгаевский) [2013, Россия, ужасы, триллер, детектив, DVD9] reversefile 4.84 GB
Фильмы (HD Rips | 720p, 1080p) День Святого Валентина / Valentine's Day (2010) BDRip 720p Белочка 7.45 GB
Фильмы 2010 года День Святого Валентина / Valentine\'s Day (Гэрри Маршалл / Garry Marshall) [2010, США, мелодрама, комедия, BDRip] Dub painkiller 1.45 GB
Отечественная Классика Николай Семенович Лесков - Святочные рассказы [Герасимов Вячеслав, 2006] Magnat 665 MB
Показать сообщения:    

Текущее время: Сегодня 11:53

Часовой пояс: GMT



Вы не можете начинать темы
Вы не можете отвечать на сообщения
Вы не можете редактировать свои сообщения
Вы не можете удалять свои сообщения
Вы не можете голосовать в опросах
Вы не можете прикреплять файлы к сообщениям
Вы не можете скачивать файлы