Связанные местью / Reversal (Хосе Мануэль Кравиотто / José Manuel Cravioto) [2015, США, Ужасы, триллер, WEB-DLRip] VO (PashaUP) + Original Eng

 
Автор Сообщение

TorrentFilm ®

Пол:

Стаж: 2 года

Сообщений: 7741



Награды: Нет

Торрент-статистика

Создавать темы 02-Июл-2015 00:09

[Цитировать]

Связанные местью / Reversal-«Escape is just the beginning»- -Страна: США
Жанр: Ужасы, триллер
Год выпуска: 2015
Продолжительность: 01:19:34-Перевод: Одноголосый закадровый PashaUP
Cубтитры: нет
Оригинальная аудиодорожка: английский-Режиссер: Хосе Мануэль Кравиотто / José Manuel Cravioto-В ролях: Тина Ивлев, Ричард Тайсон, Бьянка Малино, Эми Окуда, Стефани Чарльз, Фиорелла Гарсиа, Дастин Куик, Скотт Вэнс, Рик Сарабиа, Нихан Гар-Описание: Фильм повествует о молодой девушке, которую похитили и посадили на цепь в темном, сыром подвале для извращенных утех. Однажды ей удается вырваться, и месть становится ее главной целью. Но прежде, чем поставить точку, она должна попытаться спасти остальных узниц.-Сэмпл / КиноПоиск-Качество видео: WEB-DLRip
Формат видео: AVI-Видео: MPEG-4 Visual at 2062 Кбит/сек, 720 x 304 (2.368) at 23.976 fps
Аудио 1: Rus AC-3 at 192 Кбит/сек, 2 канала, 48,0 КГц
Аудио 2: Eng AC-3 at 192 Кбит/сек, 2 канала, 48,0 КГц

MediaInfo

Общее
Полное имя : F:\Rutracker-Razdachi\Связанные местью.2015.L1.WEB-DLRip.avi
Формат : AVI
Формат/Информация : Audio Video Interleave
Размер файла : 1,37 Гбайт
Продолжительность : 1 ч. 19 м.
Общий поток : 2461 Кбит/сек
Программа кодирования : VirtualDubMod 1.5.10.3 | www.virtualdub-fr.org || (build 2550/release)
Библиотека кодирования : VirtualDubMod build 2550/release
Видео
Идентификатор : 0
Формат : MPEG-4 Visual
Профиль формата : Advanced Simple@L5
Параметр BVOP формата : 1
Параметр QPel формата : Нет
Параметр GMC формата : Без точки перехода
Параметр матрицы формата : Выборочная
Идентификатор кодека : XVID
Идентификатор кодека/Подсказка : XviD
Продолжительность : 1 ч. 19 м.
Битрейт : 2062 Кбит/сек
Ширина : 720 пикселей
Высота : 304 пикселя
Соотношение сторон : 2,35:1
Частота кадров : 23,976 кадра/сек
Цветовое пространство : YUV
Субдискретизация насыщенности : 4:2:0
Битовая глубина : 8 бит
Тип развёртки : Прогрессивная
Метод сжатия : С потерями
Бит/(Пиксели*Кадры) : 0.393
Размер потока : 1,15 Гбайт (84%)
Библиотека кодирования : XviD 73
Аудио #1
Идентификатор : 1
Формат : AC-3
Формат/Информация : Audio Coding 3
Расширение режима : CM (complete main)
Параметр Endianness формата : Big
Идентификатор кодека : 2000
Продолжительность : 1 ч. 19 м.
Вид битрейта : Постоянный
Битрейт : 192 Кбит/сек
Каналы : 2 канала
Расположение каналов : Front: L R
Частота : 48,0 КГц
Битовая глубина : 16 бит
Метод сжатия : С потерями
Размер потока : 109 Мбайт (8%)
Выравнивание : Разделение по промежуткам
Продолжительность промежутка : 42 мс. (1,00 видеокадр)
Время предзагрузки промежутка : 500 мс.
Аудио #2
Идентификатор : 2
Формат : AC-3
Формат/Информация : Audio Coding 3
Расширение режима : CM (complete main)
Параметр Endianness формата : Big
Идентификатор кодека : 2000
Продолжительность : 1 ч. 19 м.
Вид битрейта : Постоянный
Битрейт : 192 Кбит/сек
Каналы : 2 канала
Расположение каналов : Front: L R
Частота : 48,0 КГц
Битовая глубина : 16 бит
Метод сжатия : С потерями
Размер потока : 109 Мбайт (8%)
Выравнивание : Разделение по промежуткам
Продолжительность промежутка : 42 мс. (1,00 видеокадр)
Время предзагрузки промежутка : 500 мс.

Скриншоты

[Профиль] [ЛС]
Показать сообщения:    

Текущее время: Сегодня 03:13

Часовой пояс: GMT



Вы не можете начинать темы
Вы не можете отвечать на сообщения
Вы не можете редактировать свои сообщения
Вы не можете удалять свои сообщения
Вы не можете голосовать в опросах
Вы не можете прикреплять файлы к сообщениям
Вы не можете скачивать файлы