Связанная / Bound (2015) BDRemux 1080p | L1

 
Автор Сообщение

достали все ®

Пол:

Стаж: 1 год 8 месяцев

Сообщений: 6545



Награды: 12 (Подробнее)

Mega Seeder 3 (Количество: 1) Top Releaser 3 (Количество: 1) За внесенный вклад в развитие сайта (Количество: 1)
Торрент-статистика

Создавать темы 27-Май-2015 12:59

[Цитировать]

Информация о фильме
Название: Связанная
Оригинальное название: Bound
Год выхода: 2015
Жанр: триллер, драма, эротика
Режиссер: Джаред Кон
В ролях: Брайс Дрэйпер, Morgan Obenreder, Майкл Монкс, Дэниэл Болдуин, Энди Т. Трэн, Марк МакКлейн Уилсон, Hayley McLaughlin, Крэйг Блэр, Стеффини Фроммани, Стив Су
О фильме: Дочь богатого брокера недвижимости влюбляется в молодого человека, который вводит ее в мир БДСМ. Используя своё недавно пробудившееся сексуальное мастерство, она, наконец, берет контроль над собственной жизнью в свои руки.

Выпущено: США / Global Asylum
Продолжительность: 01:30:51
Перевод: Любительский (одноголосый, закадровый) - datynet
Файл
Качество: BDRemux 1080p
Формат: MKV
Видео: MPEG4/AVC, 21.9 Мбит/сек, 1920х1080 (16:9), 23.976 кадра/сек
Аудио 1: AC3, 2 канала, 384 Кбит/сек | Русский
Аудио 2: AC3, 6 каналов, 640 Кбит/сек | Английский
Аудио 3: DTS-HD MA, 6 каналов, 1561/1509 Кбит/сек | Английский
Субтитры: Русские, английские
Навигация по главам: Есть

MediaInfo:

Общее
Уникальный идентификатор : 223428132137823988862258159436538551489 (0xA816B1691F100E4DA76EE43259839CC1)
Полное имя : Bound. (2015) BDRemux 1080p.mkv
Формат : Matroska
Версия формата : Version 2
Размер файла : 15,8 Гбайт
Продолжительность : 1 ч. 30 м.
Режим общего битрейта : Переменный
Общий поток : 24,9 Мбит/сек
Название фильма : Bound. 2015
Дата кодирования : UTC 2015-05-27 09:19:33
Программа кодирования : mkvmerge v5.8.0 ('No Sleep / Pillow') built on Sep 2 2012 15:37:04
Библиотека кодирования : libebml v1.2.3 + libmatroska v1.3.0
Видео
Идентификатор : 1
Формат : AVC
Формат/Информация : Advanced Video Codec
Профиль формата : High@L4.1
Параметр CABAC формата : Да
Параметр ReFrames формата : 4 кадра
Идентификатор кодека : V_MPEG4/ISO/AVC
Продолжительность : 1 ч. 30 м.
Вид битрейта : Переменный
Максимальный битрейт : 36,0 Мбит/сек
Ширина : 1920 пикселей
Высота : 1080 пикселей
Соотношение сторон : 16:9
Режим частоты кадров : Постоянный
Частота кадров : 23,976 кадра/сек
Цветовое пространство : YUV
Субдискретизация насыщенности : 4:2:0
Битовая глубина : 8 бит
Тип развёртки : Прогрессивная
Заголовок : RARBG
Язык : English
Default : Да
Forced : Нет
Аудио #1
Идентификатор : 2
Формат : AC-3
Формат/Информация : Audio Coding 3
Расширение режима : CM (complete main)
Параметр Endianness формата : Big
Идентификатор кодека : A_AC3
Продолжительность : 1 ч. 30 м.
Вид битрейта : Постоянный
Битрейт : 384 Кбит/сек
Каналы : 2 канала
Расположение каналов : Front: L R
Частота : 48,0 КГц
Битовая глубина : 16 бит
Метод сжатия : С потерями
Размер потока : 250 Мбайт (2%)
Заголовок : L1 | datynet
Язык : Russian
Default : Да
Forced : Нет
Аудио #2
Идентификатор : 3
Формат : AC-3
Формат/Информация : Audio Coding 3
Расширение режима : CM (complete main)
Параметр Endianness формата : Big
Идентификатор кодека : A_AC3
Продолжительность : 1 ч. 30 м.
Вид битрейта : Постоянный
Битрейт : 640 Кбит/сек
Каналы : 6 каналов
Расположение каналов : Front: L C R, Side: L R, LFE
Частота : 48,0 КГц
Битовая глубина : 16 бит
Метод сжатия : С потерями
Размер потока : 416 Мбайт (3%)
Заголовок : AC3 | Original
Язык : English
Default : Нет
Forced : Нет
Аудио #3
Идентификатор : 4
Формат : DTS
Формат/Информация : Digital Theater Systems
Профиль формата : MA / Core
Режим : 16
Параметр Endianness формата : Big
Идентификатор кодека : A_DTS
Продолжительность : 1 ч. 30 м.
Вид битрейта : Переменный
Битрейт : Неизвестно / 1509 Кбит/сек
Каналы : 6 каналов
Расположение каналов : Front: L C R, Side: L R, LFE
Частота : 48,0 КГц
Битовая глубина : 16 бит
Метод сжатия : Без потерь / Lossy
Заголовок : DTS-HD MA | Original
Язык : English
Default : Нет
Forced : Нет
Текст #1
Идентификатор : 5
Формат : UTF-8
Идентификатор кодека : S_TEXT/UTF8
Идентификатор кодека/Информация : UTF-8 Plain Text
Заголовок : Full
Язык : Russian
Default : Нет
Forced : Нет
Текст #2
Идентификатор : 6
Формат : UTF-8
Идентификатор кодека : S_TEXT/UTF8
Идентификатор кодека/Информация : UTF-8 Plain Text
Заголовок : Full
Язык : English
Default : Нет
Forced : Нет
Меню
00:00:00.000 : en:Chapter 01
00:10:00.224 : en:Chapter 02
00:20:00.490 : en:Chapter 03
00:29:59.631 : en:Chapter 04
00:39:59.980 : en:Chapter 05
00:50:00.205 : en:Chapter 06
01:00:00.054 : en:Chapter 07
01:09:59.987 : en:Chapter 08
01:19:59.669 : en:Chapter 09
Релиз от:
[Профиль] [ЛС]
Показать сообщения:    

Текущее время: Сегодня 18:40

Часовой пояс: GMT



Вы не можете начинать темы
Вы не можете отвечать на сообщения
Вы не можете редактировать свои сообщения
Вы не можете удалять свои сообщения
Вы не можете голосовать в опросах
Вы не можете прикреплять файлы к сообщениям
Вы не можете скачивать файлы