Свой ребёнок / Obvious Child (Джиллиан Робеспьер / Gillian Robespierre) [2014, США, мелодрама, комедия, BDRip-AVC] Sub Rus

 
Автор Сообщение

TorrentFilm ®

Пол:

Стаж: 2 года

Сообщений: 7741



Награды: Нет

Торрент-статистика

Создавать темы 19-Дек-2014 02:00

[Цитировать]

Свой ребёнок / Obvious Child
Страна: США
Жанр: мелодрама, комедия
Год выпуска: 2014
Продолжительность: 01:24:23
Перевод: Одноголосый закадровый PashaUp
Cубтитры: русские,английские
Режиссер: Djillian Robesper/Gillian Robespierre
В ролях: Дженни Слейт,Джейк Лэси,Габи Хоффманн,Гейб Лидман,Дэвид Кросс,Ричард Кайнд,Полли Дрэйпер,Пол Бриганти,Синди Чунг,Стивен Сингер
Описание: Стенд-ап комик Донна одновременно лишается бойфренда, работы и случайно беременеет от неизвестного ей мужчины…


Сэмпл: http://multi-up.com/1021018
Качество видео: BDRip-AVC
Исходник:Obvious.Child.2014.1080p.BluRay.Remux.DTS-HD.MA.5.1-HDAccess/Blu-bits/jphys
Формат видео: MKV
Видео: h264;1152x490;Aspect Ratio: 47:20(2.35:1);1988kbps;23.976fps
Аудио: AC3;Sample Rate:48000Hz;Channel:6(5.1);448kbps
Формат субтитров: softsub (SRT)

MediaInfo

General
Unique ID : 203954183251759703474246747345874230642 (0x99702599FA3F0CA198FCE21133A29D72)
Complete name : I:\Рипы\Obvious.Child\Dropbox\Svoy.rebenok.mkv
Format : Matroska
Format version : Version 4 / Version 2
File size : 1.47 GiB
Duration : 1h 24mn
Overall bit rate : 2 486 Kbps
Encoded date : UTC 2014-12-16 12:56:04
Writing application : mkvmerge v7.3.0 ('Nouages') 64bit built on Oct 22 2014 18:53:34
Writing library : libebml v1.3.0 + libmatroska v1.4.1
Video
ID : 1
Format : AVC
Format/Info : Advanced Video Codec
Format profile : High@L4.1
Format settings, CABAC : Yes
Format settings, ReFrames : 8 frames
Codec ID : V_MPEG4/ISO/AVC
Duration : 1h 24mn
Bit rate : 1 988 Kbps
Width : 1 152 pixels
Height : 490 pixels
Display aspect ratio : 2.35:1
Frame rate mode : Constant
Frame rate : 23.976 fps
Color space : YUV
Chroma subsampling : 4:2:0
Bit depth : 8 bits
Scan type : Progressive
Bits/(Pixel*Frame) : 0.147
Stream size : 1.17 GiB (80%)
Writing library : x264 core 142 Рип от KinoCollection
Encoding settings : cabac=1 / ref=8 / deblock=1:-3:-3 / analyse=0x3:0x113 / me=umh / subme=11 / psy=1 / fade_compensate=0.00 / psy_rd=1.00:0.10 / mixed_ref=1 / me_range=32 / chroma_me=1 / trellis=2 / 8x8dct=1 / cqm=0 / deadzone=21,11 / fast_pskip=1 / chroma_qp_offset=-3 / threads=6 / lookahead_threads=1 / sliced_threads=0 / nr=0 / decimate=1 / interlaced=0 / bluray_compat=0 / constrained_intra=0 / fgo=0 / bframes=16 / b_pyramid=2 / b_adapt=2 / b_bias=0 / direct=1 / weightb=1 / open_gop=1 / weightp=2 / keyint=240 / keyint_min=23 / scenecut=40 / intra_refresh=0 / rc_lookahead=50 / rc=crf / mbtree=1 / crf=17.1201 / qcomp=0.60 / qpmin=0 / qpmax=69 / qpstep=4 / ip_ratio=1.40 / aq=1:1.00
Language : English
Default : Yes
Forced : No
Audio
ID : 2
Format : AC-3
Format/Info : Audio Coding 3
Mode extension : CM (complete main)
Format settings, Endianness : Big
Codec ID : A_AC3
Duration : 1h 24mn
Bit rate mode : Constant
Bit rate : 448 Kbps
Channel(s) : 6 channels
Channel positions : Front: L C R, Side: L R, LFE
Sampling rate : 48.0 KHz
Bit depth : 16 bits
Compression mode : Lossy
Stream size : 270 MiB (18%)
Language : Russian
Default : Yes
Forced : No
Text #1
ID : 3
Format : UTF-8
Codec ID : S_TEXT/UTF8
Codec ID/Info : UTF-8 Plain Text
Language : Russian
Default : No
Forced : No
Text #2
ID : 4
Format : UTF-8
Codec ID : S_TEXT/UTF8
Codec ID/Info : UTF-8 Plain Text
Language : English
Default : No
Forced : No
Menu
00:00:00.000 : 00:00:00.000
00:05:25.200 : 00:05:25.200
00:13:22.593 : 00:13:22.593
00:20:36.152 : 00:20:36.152
00:26:29.922 : 00:26:29.922
00:31:38.313 : 00:31:38.313
00:38:55.291 : 00:38:55.291
00:44:17.905 : 00:44:17.905
00:47:16.625 : 00:47:16.625
00:51:14.571 : 00:51:14.571
00:54:18.338 : 00:54:18.338
00:57:19.144 : 00:57:19.144
01:02:47.097 : 01:02:47.097
01:05:10.907 : 01:05:10.907
01:10:31.686 : 01:10:31.686
01:16:41.639 : 01:16:41.639

Скриншот c названием фильма

Скриншоты

[Профиль] [ЛС]
Кто просматривает тему:

Показать сообщения:    

Текущее время: Сегодня 10:09

Часовой пояс: GMT



Вы не можете начинать темы
Вы не можете отвечать на сообщения
Вы не можете редактировать свои сообщения
Вы не можете удалять свои сообщения
Вы не можете голосовать в опросах
Вы не можете прикреплять файлы к сообщениям
Вы не можете скачивать файлы