Сводные братья / Step Brothers (Адам МакКей / Adam McKay) [2008, США, комедия, BDRip] [Theatrical Cut] Dub + Dub (Ukr) + Sub Eng + Original Eng

 
Автор Сообщение

painkiller ®

Стаж: 2 года 3 месяца

Сообщений: 582



Награды: Нет

Торрент-статистика

Создавать темы 16-Авг-2014 01:26

[Цитировать]

Сводные братья / Step Brothers / Theatrical Cut-«Они выросли, но не повзрослели»- Страна: США
Жанр: комедия
Год выпуска: 2008
Продолжительность: 01:37:48
Перевод 1: Профессиональный (дублированный)
Перевод 2: Профессиональный (дублированный) Украинский
Cубтитры: английские
Оригинальная аудиодорожка: английский
Режиссер: Адам МакКей / Adam McKay
В ролях: Уилл Феррелл, Джон С. Райлли, Мэри Стинберген, Ричард Дженкинс, Адам Скотт, Кэтрин Хан, Андреа Сэвадж, Лури Постон, Элизабет Йозамп, Логан Манус, Трэвис Т. Флори, Лили Роуз МакКэй, Шира Пивен, Сет Моррис, Уэйн Федерман
Описание: Бреннан Хаф — 39-летний домосед и Дейл Добак — 40-летний лежебока неожиданно становятся братьями. Родители-одиночки, всю жизнь обеспечивающие полный пансион своим чадам, решили скрепить союз узами брака после судьбоносной встречи на конференции.
Новоиспеченная семья собирается под одной крышей с одной же спальней для сыновей. Естественно, такой расклад не устраивает избалованных «мальчиков» и они начинают ненавидеть друг друга лютой ненавистью. Но неожиданно они обнаруживают, что у них не так уж и много различий. Что, подобно 12-летним подросткам, они оказались заперты во взрослых телах.
И тут-то, когда невероятная дружба начала скреплять их братские узы, родители решили развестись. Удастся ли теперь кому-либо разлучить братьев? Или они сами выведут кого угодно из игры?
Сэмпл: http://multi-up.com/964326
Качество видео: BDRip (Step Brothers.2008.BD.Remux.1080p.h264.Rus.Eng.Commentary.mkv)
Формат видео: AVI
Видео: 720x304 (2.35:1), 23.976 fps, XviD MPEG-4 ~1709 kbps avg, 0.326 bit/pixel
Аудио 1: 48 kHz, AC3 Dolby Digital, 3/2 (L,C,R,l,r) + LFE ch, ~448 kbps - Дубляж
Аудио 2: 48 kHz, AC3 Dolby Digital, 3/2 (L,C,R,l,r) + LFE ch, ~384 kbps - Дубляж - Украинский
Аудио 3: 48 kHz, AC3 Dolby Digital, 6 ch, ~448.00 kbps avg - Оригинал (Английский)
Формат субтитров: softsub (SRT)
Доп. информация о субтитрах: внешние
&

MediaInfo

Общее
Полное имя : D:\Рипы\Step.Brothers.2008.BDRip.Rus.Ukr.Eng\Step Brothers.2008.BDRip.avi
Формат : AVI
Формат/Информация : Audio Video Interleave
Профиль формата : OpenDML
Размер файла : 2,06 Гбайт
Продолжительность : 1 ч. 37 м.
Общий поток : 3013 Кбит/сек
Название фильма : Step Brothers.2008.BDRip
Режиссёр : rip by maygli
Программа кодирования : VirtualDubModRus 1.5.10.2 (build 2542/release)
Правообладатель : ... (RG Rulya74)
Видео
Идентификатор : 0
Формат : MPEG-4 Visual
Профиль формата : Advanced Simple@L5
Параметр BVOP формата : 1
Параметр QPel формата : Нет
Параметр GMC формата : Без точки перехода
Параметр матрицы формата : Выборочная
Идентификатор кодека : XVID
Идентификатор кодека/Подсказка : XviD
Продолжительность : 1 ч. 37 м.
Битрейт : 1709 Кбит/сек
Ширина : 720 пикселей
Высота : 304 пикселя
Соотношение сторон : 2,35:1
Частота кадров : 23,976 кадра/сек
Цветовое пространство : YUV
Субдискретизация насыщенности : 4:2:0
Битовая глубина : 8 бит
Тип развёртки : Прогрессивная
Метод сжатия : С потерями
Бит/(Пиксели*Кадры) : 0.326
Размер потока : 1,17 Гбайт (57%)
Библиотека кодирования : XviD 65
Аудио #1
Идентификатор : 1
Формат : AC-3
Формат/Информация : Audio Coding 3
Расширение режима : CM (complete main)
Параметр Endianness формата : Big
Идентификатор кодека : 2000
Продолжительность : 1 ч. 37 м.
Вид битрейта : Постоянный
Битрейт : 448 Кбит/сек
Каналы : 6 каналов
Расположение каналов : Front: L C R, Side: L R, LFE
Частота : 48,0 КГц
Битовая глубина : 16 бит
Метод сжатия : С потерями
Размер потока : 313 Мбайт (15%)
Выравнивание : Разделение по промежуткам
Продолжительность промежутка : 42 мс. (1,00 видеокадр)
Время предзагрузки промежутка : 500 мс.
Заголовок : Дубляж
Аудио #2
Идентификатор : 2
Формат : AC-3
Формат/Информация : Audio Coding 3
Расширение режима : CM (complete main)
Параметр Endianness формата : Big
Идентификатор кодека : 2000
Продолжительность : 1 ч. 37 м.
Вид битрейта : Постоянный
Битрейт : 384 Кбит/сек
Каналы : 6 каналов
Расположение каналов : Front: L C R, Side: L R, LFE
Частота : 48,0 КГц
Битовая глубина : 16 бит
Метод сжатия : С потерями
Размер потока : 269 Мбайт (13%)
Выравнивание : Разделение по промежуткам
Продолжительность промежутка : 42 мс. (1,00 видеокадр)
Время предзагрузки промежутка : 500 мс.
Заголовок : Дубляж - Украинский
Аудио #3
Идентификатор : 3
Формат : AC-3
Формат/Информация : Audio Coding 3
Расширение режима : CM (complete main)
Параметр Endianness формата : Big
Идентификатор кодека : 2000
Продолжительность : 1 ч. 37 м.
Вид битрейта : Постоянный
Битрейт : 448 Кбит/сек
Каналы : 6 каналов
Расположение каналов : Front: L C R, Side: L R, LFE
Частота : 48,0 КГц
Битовая глубина : 16 бит
Метод сжатия : С потерями
Размер потока : 313 Мбайт (15%)
Выравнивание : Разделение по промежуткам
Продолжительность промежутка : 42 мс. (1,00 видеокадр)
Время предзагрузки промежутка : 500 мс.
Заголовок : Оригинал (Английский)

Скриншот c названием фильма

Скриншоты

[Профиль] [ЛС]

Создавать темы 06-Авг-2015 23:09 (спустя 11 месяцев 21 день)

Топик был перенесен из форума Фильмы до 2014 года в форум Фильмы до 2012 года
sergej644
 

Создавать темы 12-Июн-2016 08:51 (спустя 1 год 9 месяцев)

Топик был перенесен из форума Фильмы 2011 года в форум Фильмы 2006-2008 года
Russian Mafia
 
Показать сообщения:    

Текущее время: Сегодня 14:54

Часовой пояс: GMT



Вы не можете начинать темы
Вы не можете отвечать на сообщения
Вы не можете редактировать свои сообщения
Вы не можете удалять свои сообщения
Вы не можете голосовать в опросах
Вы не можете прикреплять файлы к сообщениям
Вы не можете скачивать файлы