Свободное Радио Альбемута / Radio Free Albemuth (Джон Алан Саймон / John Alan Simon) [2010, США, фантастика, драма, антиутопия, HDRip] VO (Лыдин)

 
Автор Сообщение

TorrentFilm ®

Пол:

Стаж: 2 года

Сообщений: 7741



Награды: Нет

Торрент-статистика

Создавать темы 13-Янв-2016 00:08

[Цитировать]

Свободное Радио Альбемута / Radio Free Albemuth
Страна: США
Жанр: фантастика, драма, антиутопия
Год выпуска: 2010
Продолжительность: 01:51:13
Перевод: Одноголосый закадровый - Алексей Лыдин
Cубтитры: нет

Режиссер: Джон Алан Саймон / John Alan Simon
В ролях: Джонатан Скарф, Ши Уигхэм, Кэтрин Уинник, Аланис Морисетт, Ханна Р. Холл, Элиз Эштон, Кэрол Эйвери, Том Бейер, Нэнси Лайнхэн Чарльз, Джозеф Кинтрон
Описание: Экранизация одноимённого фантастического романа Филипа Дика. Бывший студент университета Беркли Ник Брейди неожиданно начал слышать некие «голоса». Для начала «голоса» сообщили Нику, что его маленький сын нуждается в срочной операции. Дальнейшее общение с загадочными «голосами» переворачивает всю жизнь Ника Брейди…
Качество видео: HDRip [Radio.Free.Albemuth_2014.BDRip]
Формат видео: AVI
Видео: 704x400 (1.76:1), 23.976 fps, XviD build 73 ~1482 kbps avg, 0.22 bit/pixel
Аудио: 48 kHz, AC3 Dolby Digital, 3/2 (L,C,R,l,r) + LFE ch, ~384 kbps

MediaInfo

Общее
Полное имя : H:\Radio.Free.Albemuth.2010.hdrip_[1.46]_[teko].avi
Формат : AVI
Формат/Информация : Audio Video Interleave
Размер файла : 1,46 Гбайт
Продолжительность : 1 ч. 51 м.
Общий поток : 1876 Кбит/сек
Программа кодирования : VirtualDubMod 1.5.10.3 | www.virtualdub-fr.org || (build 2550/release)
Библиотека кодирования : VirtualDubMod build 2550/release
Видео
Идентификатор : 0
Формат : MPEG-4 Visual
Профиль формата : Advanced Simple@L5
Параметр BVOP формата : 1
Параметр QPel формата : Нет
Параметр GMC формата : Без точки перехода
Параметр матрицы формата : Выборочная
Идентификатор кодека : XVID
Идентификатор кодека/Подсказка : XviD
Продолжительность : 1 ч. 51 м.
Битрейт : 1483 Кбит/сек
Ширина : 704 пикселя
Высота : 400 пикселей
Соотношение сторон : 16:9
Частота кадров : 23,976 кадра/сек
Цветовое пространство : YUV
Субдискретизация насыщенности : 4:2:0
Битовая глубина : 8 бит
Тип развёртки : Прогрессивная
Метод сжатия : С потерями
Бит/(Пиксели*Кадры) : 0.220
Размер потока : 1,15 Гбайт (79%)
Библиотека кодирования : XviD 73
Аудио
Идентификатор : 1
Формат : AC-3
Формат/Информация : Audio Coding 3
Расширение режима : CM (complete main)
Параметр Endianness формата : Big
Идентификатор кодека : 2000
Продолжительность : 1 ч. 51 м.
Вид битрейта : Постоянный
Битрейт : 384 Кбит/сек
Каналы : 6 каналов
Расположение каналов : Front: L C R, Side: L R, LFE
Частота : 48,0 КГц
Битовая глубина : 16 бит
Метод сжатия : С потерями
Размер потока : 305 Мбайт (20%)
Выравнивание : Разделение по промежуткам
Продолжительность промежутка : 42 мс. (1,00 видеокадр)
Время предзагрузки промежутка : 500 мс.
Релиз группы:
--
[Профиль] [ЛС]

Создавать темы 12-Июн-2016 07:53 (спустя 4 месяца 30 дней)

Топик был перенесен из форума Фильмы 2011 года в форум Фильмы 2010 года
Russian Mafia
 
Кто просматривает тему:

Форум Тема Автор Размер
Rock (Панк Рок) Тени Свободы - Тени Свободы - 2015, MP3, 320 kbps достали все 101 MB
Детская литература А.С. Пушкин - А.С. Пушкин - Руслан и Людмила [Н.Свободин, К.Ростовцева, А.Вербицкий, А.Грибов, 2006, 320 kbps] sergej644 163 MB
Фильмы (HD Rips | 720p, 1080p) Акулы на свободе / Sharkansas Women's Prison Massacre (2016) BDRip 720p | P достали все 4.48 GB
Фильмы 2016 года Акулы на свободе / Sharkansas Women's Prison Massacre (2016) HDRip | P достали все 1.37 GB
R.G.TorrentFilm Video Акулы на свободе / Sharkansas Women's Prison Massacre (Джим Уайнорски / Jim Wynorski) [2016, США, Ужасы, фантастика, боевик, WEB-DLRip] MVO Один 777 704 MB
Документальные HD В Мае 45-го. Освобождение Праги (Элла Тухарели) [2015, Документальный, HDTV 720p] TorrentFilm 1.33 GB
Разная литература Вершинин Лев - Преступная история США. Статуя кровавой свободы (2016) FB2 достали все 1 MB
Фильмы 2011 года День освобождения / Муньюрангабо / Munyurangabo (Ли Айзек Чун / Lee Isaac Chung) [2007, Руанда, США, драма, DVDRip] Sub Rus painkiller 1.09 GB
Показать сообщения:    

Текущее время: Сегодня 08:45

Часовой пояс: GMT



Вы не можете начинать темы
Вы не можете отвечать на сообщения
Вы не можете редактировать свои сообщения
Вы не можете удалять свои сообщения
Вы не можете голосовать в опросах
Вы не можете прикреплять файлы к сообщениям
Вы не можете скачивать файлы