Свободное радио Альбемута / Radio Free Albemuth (Джон Алан Саймон / John Alan Simon) [2010, США, Фантастика, драма, WEB-DLRip] VO (Алексей Лыдин) + Original Eng

 
Автор Сообщение

TorrentFilm ®

Пол:

Стаж: 2 года

Сообщений: 7741



Награды: Нет

Торрент-статистика

Создавать темы 13-Окт-2015 00:09

[Цитировать]

Свободное радио Альбемута / Radio Free Albemuth
Страна: США
Жанр: Фантастика, драма
Год выпуска: 2010
Продолжительность: 01:51:13
Перевод: Одноголосый закадровый Алексей Лыдин
Cубтитры: нет
Оригинальная аудиодорожка: английский
Режиссер: Джон Алан Саймон / John Alan Simon
В ролях: Джонатан Скарф, Ши Уигхэм, Кэтрин Уинник, Аланис Мориссетт, Ханна Р. Холл, Элиз Эштон, Кэрол Эйвери, Том Бейер, Нэнси Лайнхэн Чарльз, Джозеф Кинтрон
Описание: Бывший студент университета Беркли, Ник Брейди неожиданно начал слышать некие «голоса». Для начала «голоса» сообщили Нику, что его маленький сын нуждается в срочной операции. Дальнейшее общение с загадочными «голосами» переворачивает всю жизнь Ника Брейди…
Доп. информация: Экранизация одноимённого фантастического романа Филипа Дика.
Сэмпл: http://multi-up.com/1070571
Качество видео: WEB-DLRip
Формат видео: AVI
Видео: XviD, 720х400 (16:9), 23.976 fps, 1858 Кбит/с
Аудио 1: АС-3, 6 ch, 48.0 KHz, 384 Кбит/с RUS
Аудио 2: АС-3, 6 ch, 48.0 KHz, 384 Кбит/с ENG

MediaInfo

General
Complete name : C:\Documents and Settings\Admin\Мои документы\Downloads\Radio.Free.Albemuth.2010.L1.WEBDLRip.2100Mb.avi
Format : AVI
Format/Info : Audio Video Interleave
Format profile : OpenDML
File size : 2.05 GiB
Duration : 1h 51mn
Overall bit rate : 2 644 Kbps
Writing application : VirtualDubMod 1.5.10.3 | www.virtualdub-fr.org || (build 2550/release)
Writing library : VirtualDubMod build 2550/release
Video
ID : 0
Format : MPEG-4 Visual
Format profile : Advanced Simple@L5
Format settings, BVOP : 1
Format settings, QPel : No
Format settings, GMC : No warppoints
Format settings, Matrix : Custom
Codec ID : XVID
Codec ID/Hint : XviD
Duration : 1h 51mn
Bit rate : 1 858 Kbps
Width : 720 pixels
Height : 400 pixels
Display aspect ratio : 16:9
Frame rate : 23.976 fps
Color space : YUV
Chroma subsampling : 4:2:0
Bit depth : 8 bits
Scan type : Progressive
Compression mode : Lossy
Bits/(Pixel*Frame) : 0.269
Stream size : 1.44 GiB (70%)
Writing library : XviD 1.2.1 (UTC 2008-12-04)
Audio #1
ID : 1
Format : AC-3
Format/Info : Audio Coding 3
Mode extension : CM (complete main)
Format settings, Endianness : Big
Codec ID : 2000
Duration : 1h 51mn
Bit rate mode : Constant
Bit rate : 384 Kbps
Channel(s) : 6 channels
Channel positions : Front: L C R, Side: L R, LFE
Sampling rate : 48.0 KHz
Bit depth : 16 bits
Compression mode : Lossy
Stream size : 305 MiB (15%)
Alignment : Split accross interleaves
Interleave, duration : 42 ms (1.00 video frame)
Interleave, preload duration : 500 ms
Audio #2
ID : 2
Format : AC-3
Format/Info : Audio Coding 3
Mode extension : CM (complete main)
Format settings, Endianness : Big
Codec ID : 2000
Duration : 1h 51mn
Bit rate mode : Constant
Bit rate : 384 Kbps
Channel(s) : 6 channels
Channel positions : Front: L C R, Side: L R, LFE
Sampling rate : 48.0 KHz
Bit depth : 16 bits
Compression mode : Lossy
Stream size : 305 MiB (15%)
Alignment : Split accross interleaves
Interleave, duration : 42 ms (1.00 video frame)
Interleave, preload duration : 500 ms

Скриншот c названием фильма

Скриншоты

[Профиль] [ЛС]

Создавать темы 12-Июн-2016 07:53 (спустя 7 месяцев 30 дней)

Топик был перенесен из форума Фильмы 2011 года в форум Фильмы 2010 года
Russian Mafia
 
Кто просматривает тему:

Форум Тема Автор Размер
Rock (Панк Рок) Тени Свободы - Тени Свободы - 2015, MP3, 320 kbps достали все 101 MB
Детская литература А.С. Пушкин - А.С. Пушкин - Руслан и Людмила [Н.Свободин, К.Ростовцева, А.Вербицкий, А.Грибов, 2006, 320 kbps] sergej644 163 MB
Фильмы (HD Rips | 720p, 1080p) Акулы на свободе / Sharkansas Women's Prison Massacre (2016) BDRip 720p | P достали все 4.48 GB
Фильмы 2016 года Акулы на свободе / Sharkansas Women's Prison Massacre (2016) HDRip | P достали все 1.37 GB
R.G.TorrentFilm Video Акулы на свободе / Sharkansas Women's Prison Massacre (Джим Уайнорски / Jim Wynorski) [2016, США, Ужасы, фантастика, боевик, WEB-DLRip] MVO Один 777 704 MB
Документальные HD В Мае 45-го. Освобождение Праги (Элла Тухарели) [2015, Документальный, HDTV 720p] TorrentFilm 1.33 GB
Разная литература Вершинин Лев - Преступная история США. Статуя кровавой свободы (2016) FB2 достали все 1 MB
Фильмы 2011 года День освобождения / Муньюрангабо / Munyurangabo (Ли Айзек Чун / Lee Isaac Chung) [2007, Руанда, США, драма, DVDRip] Sub Rus painkiller 1.09 GB
Показать сообщения:    

Текущее время: Сегодня 00:36

Часовой пояс: GMT



Вы не можете начинать темы
Вы не можете отвечать на сообщения
Вы не можете редактировать свои сообщения
Вы не можете удалять свои сообщения
Вы не можете голосовать в опросах
Вы не можете прикреплять файлы к сообщениям
Вы не можете скачивать файлы