Свободное Радио Альбемута / Radio Free Albemuth (Джон Алан Саймон / John Alan Simon) [2010, США, Фантастика / драма / антиутопия, WEB-DLRip] VO (Алексей Лыдин)

 
Автор Сообщение

TorrentFilm ®

Пол:

Стаж: 2 года

Сообщений: 7741



Награды: Нет

Торрент-статистика

Создавать темы 10-Окт-2015 00:11

[Цитировать]

Свободное Радио Альбемута / Radio Free Albemuth
Страна: США
Жанр: Фантастика / драма / антиутопия
Год выпуска: 2010
Продолжительность: 01:51:14
Перевод: Одноголосый закадровый Алексей Лыдин
Cубтитры: нет
Режиссер: Джон Алан Саймон / John Alan Simon
В ролях: Джонатан Скарф, Ши Уигхэм, Кэтрин Уинник, Аланис Морисетт, Ханна Р. Холл, Элиз Эштон, Кэрол Эйвери, Том Бейер, Нэнси Лайнхэн Чарльз, Джозеф Кинтрон
Описание: Экранизация одноимённого фантастического романа Филипа Дика.
"Бывший студент университета Беркли Ник Брейди неожиданно начал слышать некие «голоса». Для начала «голоса» сообщили Нику, что его маленький сын нуждается в срочной операции. Дальнейшее общение с загадочными «голосами» переворачивает всю жизнь Ника Брейди…" (с) kinopoisk
Сэмпл: https://yadi.sk/i/mfuISh2rjcgFb
Качество видео: WEB-DLRip
Формат видео: AVI
Видео: XVID, 16:9, 720x408, 23.976 fps, 1707 kbps
Аудио: AC-3, 48 kHz, stereo, 192 kbps

MediaInfo

General
Complete name : D:\films\Radio Free Albemuth\Свободное Радио Альбемута.avi
Format : AVI
Format/Info : Audio Video Interleave
File size : 1.48 GiB
Duration : 1h 51mn
Overall bit rate : 1 908 Kbps
Writing library : VirtualDub-MPEG2 build 24586/release
Video
ID : 0
Format : MPEG-4 Visual
Format profile : Advanced Simple@L5
Format settings, BVOP : 3
Format settings, QPel : Yes
Format settings, GMC : 3 warppoints
Format settings, Matrix : Default (H.263)
Codec ID : XVID
Codec ID/Hint : XviD
Duration : 1h 51mn
Bit rate : 1 707 Kbps
Width : 720 pixels
Height : 408 pixels
Display aspect ratio : 16:9
Frame rate : 23.976 fps
Color space : YUV
Chroma subsampling : 4:2:0
Bit depth : 8 bits
Scan type : Progressive
Compression mode : Lossy
Bits/(Pixel*Frame) : 0.242
Stream size : 1.33 GiB (89%)
Writing library : XviD 1.2.1 (UTC 2008-12-04)
Audio
ID : 1
Format : AC-3
Format/Info : Audio Coding 3
Mode extension : CM (complete main)
Format settings, Endianness : Big
Codec ID : 2000
Duration : 1h 51mn
Bit rate mode : Constant
Bit rate : 192 Kbps
Channel(s) : 2 channels
Channel positions : Front: L R
Sampling rate : 48.0 KHz
Bit depth : 16 bits
Compression mode : Lossy
Stream size : 153 MiB (10%)
Alignment : Aligned on interleaves
Interleave, duration : 42 ms (1.00 video frame)
Interleave, preload duration : 512 ms

Скриншоты




[Профиль] [ЛС]

Создавать темы 12-Июн-2016 07:53 (спустя 8 месяцев 2 дня)

Топик был перенесен из форума Фильмы 2011 года в форум Фильмы 2010 года
Russian Mafia
 
Кто просматривает тему:

Форум Тема Автор Размер
Rock (Панк Рок) Тени Свободы - Тени Свободы - 2015, MP3, 320 kbps достали все 101 MB
Детская литература А.С. Пушкин - А.С. Пушкин - Руслан и Людмила [Н.Свободин, К.Ростовцева, А.Вербицкий, А.Грибов, 2006, 320 kbps] sergej644 163 MB
Фильмы (HD Rips | 720p, 1080p) Акулы на свободе / Sharkansas Women's Prison Massacre (2016) BDRip 720p | P достали все 4.48 GB
Фильмы 2016 года Акулы на свободе / Sharkansas Women's Prison Massacre (2016) HDRip | P достали все 1.37 GB
R.G.TorrentFilm Video Акулы на свободе / Sharkansas Women's Prison Massacre (Джим Уайнорски / Jim Wynorski) [2016, США, Ужасы, фантастика, боевик, WEB-DLRip] MVO Один 777 704 MB
Документальные HD В Мае 45-го. Освобождение Праги (Элла Тухарели) [2015, Документальный, HDTV 720p] TorrentFilm 1.33 GB
Разная литература Вершинин Лев - Преступная история США. Статуя кровавой свободы (2016) FB2 достали все 1 MB
Фильмы 2011 года День освобождения / Муньюрангабо / Munyurangabo (Ли Айзек Чун / Lee Isaac Chung) [2007, Руанда, США, драма, DVDRip] Sub Rus painkiller 1.09 GB
Показать сообщения:    

Текущее время: Сегодня 18:40

Часовой пояс: GMT



Вы не можете начинать темы
Вы не можете отвечать на сообщения
Вы не можете редактировать свои сообщения
Вы не можете удалять свои сообщения
Вы не можете голосовать в опросах
Вы не можете прикреплять файлы к сообщениям
Вы не можете скачивать файлы