Свинарка и пастух (Иван Пырьев) [1941, СССР, Музыкальная комедия, мелодрама, DVD5]

 
Автор Сообщение

TorrentFilm ®

Пол:

Стаж: 2 года

Сообщений: 7741



Награды: Нет

Торрент-статистика

Создавать темы 09-Июл-2015 00:05

[Цитировать]

Свинарка и пастух
Страна: СССР
Жанр: Музыкальная комедия, мелодрама
Год выпуска: 1941
Продолжительность: 01:22:51
Режиссер: Иван Пырьев
Cценарий: Виктор Гусев
В ролях: Марина Ладынина, Владимир Зельдин, Николай Крючков,
Никита Китаев, Григорий Алексеев, Е. Счастливцева, Осип Абдулов,
Тихон Хренников, Татьяна Говоркова, Татьяна Барышева и др.
Описание: Эта музыкальная сказка рассказывает о любви и дружбе
Вологодской свинарки Глаши Новиковой и дагестанского пастуха Мусаиба Гатуева.
О том, как они познакомились в Москве на Всесоюзной сельскохозяйственной выставке,
о том как полюбили друг друга, и как договорились встретиться через год...
Интересно, получится у них или нет?
Меню: Анимированное озвученное
Тип релиза: DVD5
Контейнер: DVD-Video
Видео кодек: MPEG-2
Аудио кодек: AC-3
Видео: PAL 4:3 (720x576) VBR, 6525 kbps - 8000 kbps
Аудио: Russian (Dolby AC3, 2 ch) CBR 224 kbps, Front: L R, 48.0 KHz 16 bits

DVDInfo

Title: Svinarka_i_pastuh_1941_DVD5_[torrentfilm.net]Size: 4.07 Gb ( 4 264 886,00 KBytes ) - DVD-5Enabled regions: 1, 2, 3, 4, 5, 6, 7, 8
VTS_01 : Play Length: 01:22:51 Video: PAL 4:3 (720x576) VBR Audio: Russian (Dolby AC3, 2 ch)
* Menus Information *
VIDEO_TS MenuVideo: PAL 4:3 (720x576) VBREnglish Language Unit : Title Menu
VTS_01 MenuVideo: PAL 4:3 (720x576) VBRAudio: Not specified (Dolby AC3, 2 ch)English Language Unit : Root Menu Chapter (PTT) Menu

MediaInfo

ОбщееПолное имя : E:\Svinarka_i_pastuh_1941_DVD5_[torrentfilm.net]\VIDEO_TS\VIDEO_TS.BUPФормат : DVD VideoПрофиль формата : MenuРазмер файла : 12,0 КбайтРежим общего битрейта : Переменный
ВидеоИдентификатор : 224 (0xE0)Формат : MPEG VideoВерсия формата : Version 2Вид битрейта : ПеременныйШирина : 720 пикселейВысота : 576 пикселейСоотношение сторон : 4:3Частота кадров : 25,000 кадров/секСтандарт вещания : PALМетод сжатия : С потерями
ТекстФормат : RLEФормат/Информация : Run-length encodingБитовая глубина : 2 бит
ОбщееПолное имя : E:\Svinarka_i_pastuh_1941_DVD5_[torrentfilm.net]\VIDEO_TS\VIDEO_TS.IFOФормат : DVD VideoПрофиль формата : MenuРазмер файла : 12,0 КбайтРежим общего битрейта : Переменный
ВидеоИдентификатор : 224 (0xE0)Формат : MPEG VideoВерсия формата : Version 2Вид битрейта : ПеременныйШирина : 720 пикселейВысота : 576 пикселейСоотношение сторон : 4:3Частота кадров : 25,000 кадров/секСтандарт вещания : PALМетод сжатия : С потерями
ТекстФормат : RLEФормат/Информация : Run-length encodingБитовая глубина : 2 бит
ОбщееПолное имя : E:\Svinarka_i_pastuh_1941_DVD5_[torrentfilm.net]\VIDEO_TS\VIDEO_TS.VOBФормат : MPEG-PSРазмер файла : 5,12 МбайтПродолжительность : 7 с. 0 мс.Режим общего битрейта : ПеременныйОбщий поток : 6130 Кбит/сек
ВидеоИдентификатор : 224 (0xE0)Формат : MPEG VideoВерсия формата : Version 2Профиль формата : Main@MainПараметр BVOP формата : ДаПараметр матрицы формата : По умолчаниюПараметр GOP формата : M=3, N=12Продолжительность : 7 с. 0 мс.Вид битрейта : ПеременныйБитрейт : 6000 Кбит/секШирина : 720 пикселейВысота : 576 пикселейСоотношение сторон : 4:3Частота кадров : 25,000 кадров/секСтандарт вещания : PALЦветовое пространство : YUVСубдискретизация насыщенности : 4:2:0Битовая глубина : 8 битТип развёртки : ПрогрессивнаяМетод сжатия : С потерямиБит/(Пиксели*Кадры) : 0.579Временной код первого кадра : 00:00:00:00Оригинал временного кода : Group of pictures headerРазмер потока : 5,01 Мбайт (98%)Основные цвета : BT.601 PALХарактеристики трансфера : BT.470 System B, BT.470 System GКоэффициенты матрицы : BT.601
ТекстИдентификатор : 189 (0xBD)-32 (0x20)Формат : RLEФормат/Информация : Run-length encodingРежим смешивания : DVD-Video
Меню
ОбщееПолное имя : E:\Svinarka_i_pastuh_1941_DVD5_[torrentfilm.net]\VIDEO_TS\VTS_01_0.BUPФормат : DVD VideoПрофиль формата : ProgramРазмер файла : 56,0 КбайтПродолжительность : 1 ч. 22 м.Режим общего битрейта : ПеременныйОбщий поток : 92 бит/сек
ВидеоИдентификатор : 224 (0xE0)Формат : MPEG VideoВерсия формата : Version 2Продолжительность : 1 ч. 22 м.Вид битрейта : ПеременныйШирина : 720 пикселейВысота : 576 пикселейСоотношение сторон : 4:3Частота кадров : 25,000 кадров/секСтандарт вещания : PALМетод сжатия : С потерями
АудиоИдентификатор : 128 (0x80)Формат : AC-3Формат/Информация : Audio Coding 3Продолжительность : 1 ч. 22 м.Каналы : 2 каналаЧастота : 48,0 КГцМетод сжатия : С потерямиЯзык : Russian
МенюПродолжительность : 1 ч. 22 м.00:00:00.000 : Chapter 100:08:03.040 : Chapter 200:15:18.600 : Chapter 300:22:35.840 : Chapter 400:30:52.880 : Chapter 500:39:40.040 : Chapter 600:45:15.160 : Chapter 700:52:53.880 : Chapter 801:00:47.040 : Chapter 901:08:31.600 : Chapter 1001:15:26.080 : Chapter 1101:20:12.000 : Chapter 12List (Audio) : 0
ОбщееПолное имя : E:\Svinarka_i_pastuh_1941_DVD5_[torrentfilm.net]\VIDEO_TS\VTS_01_0.IFOФормат : DVD VideoПрофиль формата : ProgramРазмер файла : 56,0 КбайтПродолжительность : 1 ч. 22 м.Режим общего битрейта : ПеременныйОбщий поток : 92 бит/сек
ВидеоИдентификатор : 224 (0xE0)Формат : MPEG VideoВерсия формата : Version 2Продолжительность : 1 ч. 22 м.Вид битрейта : ПеременныйШирина : 720 пикселейВысота : 576 пикселейСоотношение сторон : 4:3Частота кадров : 25,000 кадров/секСтандарт вещания : PALМетод сжатия : С потерями
АудиоИдентификатор : 128 (0x80)Формат : AC-3Формат/Информация : Audio Coding 3Продолжительность : 1 ч. 22 м.Каналы : 2 каналаЧастота : 48,0 КГцМетод сжатия : С потерямиЯзык : Russian
МенюПродолжительность : 1 ч. 22 м.00:00:00.000 : Chapter 100:08:03.040 : Chapter 200:15:18.600 : Chapter 300:22:35.840 : Chapter 400:30:52.880 : Chapter 500:39:40.040 : Chapter 600:45:15.160 : Chapter 700:52:53.880 : Chapter 801:00:47.040 : Chapter 901:08:31.600 : Chapter 1001:15:26.080 : Chapter 1101:20:12.000 : Chapter 12List (Audio) : 0
ОбщееПолное имя : E:\Svinarka_i_pastuh_1941_DVD5_[torrentfilm.net]\VIDEO_TS\VTS_01_0.VOBФормат : MPEG-PSРазмер файла : 78,9 МбайтПродолжительность : 34 с.Режим общего битрейта : ПеременныйОбщий поток : 18,9 Мбит/сек
ВидеоИдентификатор : 224 (0xE0)Формат : MPEG VideoВерсия формата : Version 2Профиль формата : Main@MainПараметр BVOP формата : ДаПараметр матрицы формата : По умолчаниюПараметр GOP формата : M=3, N=12Продолжительность : 34 с.Вид битрейта : ПеременныйБитрейт : 18,4 Мбит/секМаксимальный битрейт : 6000 Кбит/секШирина : 720 пикселейВысота : 576 пикселейСоотношение сторон : 4:3Частота кадров : 25,000 кадров/секСтандарт вещания : PALЦветовое пространство : YUVСубдискретизация насыщенности : 4:2:0Битовая глубина : 8 битТип развёртки : ПрогрессивнаяМетод сжатия : С потерямиБит/(Пиксели*Кадры) : 1.771Временной код первого кадра : 00:00:00:00Оригинал временного кода : Group of pictures headerРазмер потока : 76,5 Мбайт (97%)Основные цвета : BT.601 PALХарактеристики трансфера : BT.470 System B, BT.470 System GКоэффициенты матрицы : BT.601
АудиоИдентификатор : 189 (0xBD)-128 (0x80)Формат : AC-3Формат/Информация : Audio Coding 3Расширение режима : CM (complete main)Параметр Endianness формата : BigРежим смешивания : DVD-VideoПродолжительность : 34 с.Вид битрейта : ПостоянныйБитрейт : 192 Кбит/секКаналы : 2 каналаРасположение каналов : Front: L RЧастота : 48,0 КГцБитовая глубина : 16 битМетод сжатия : С потерямиРазмер потока : 815 Кбайт (1%)
ТекстИдентификатор : 189 (0xBD)-32 (0x20)Формат : RLEФормат/Информация : Run-length encodingРежим смешивания : DVD-Video
Меню
ОбщееПолное имя : E:\Svinarka_i_pastuh_1941_DVD5_[torrentfilm.net]\VIDEO_TS\VTS_01_1.VOBФормат : MPEG-PSРазмер файла : 1024 МбайтПродолжительность : 20 м.Режим общего битрейта : ПеременныйОбщий поток : 6891 Кбит/сек
ВидеоИдентификатор : 224 (0xE0)Формат : MPEG VideoВерсия формата : Version 2Профиль формата : Main@MainПараметр BVOP формата : ДаПараметр матрицы формата : ВыборочнаяПараметр GOP формата : M=3, N=15Продолжительность : 20 м.Вид битрейта : ПеременныйБитрейт : 6530 Кбит/секМаксимальный битрейт : 8000 Кбит/секШирина : 720 пикселейВысота : 576 пикселейСоотношение сторон : 4:3Частота кадров : 25,000 кадров/секСтандарт вещания : PALЦветовое пространство : YUVСубдискретизация насыщенности : 4:2:0Битовая глубина : 8 битТип развёртки : ЧересстрочнаяПорядок развёртки : Верхнее поле первоеМетод сжатия : С потерямиБит/(Пиксели*Кадры) : 0.630Временной код первого кадра : 00:00:00:00Оригинал временного кода : Group of pictures headerРазмер потока : 970 Мбайт (95%)Основные цвета : BT.601 NTSCХарактеристики трансфера : BT.601Коэффициенты матрицы : BT.601
АудиоИдентификатор : 189 (0xBD)-128 (0x80)Формат : AC-3Формат/Информация : Audio Coding 3Расширение режима : CM (complete main)Параметр Endianness формата : BigРежим смешивания : DVD-VideoПродолжительность : 20 м.Вид битрейта : ПостоянныйБитрейт : 224 Кбит/секКаналы : 2 каналаРасположение каналов : Front: L RЧастота : 48,0 КГцБитовая глубина : 16 битМетод сжатия : С потерямиРазмер потока : 33,3 Мбайт (3%)
Меню
ОбщееПолное имя : E:\Svinarka_i_pastuh_1941_DVD5_[torrentfilm.net]\VIDEO_TS\VTS_01_2.VOBФормат : MPEG-PSРазмер файла : 1024 МбайтПродолжительность : 20 м.Режим общего битрейта : ПеременныйОбщий поток : 6896 Кбит/сек
ВидеоИдентификатор : 224 (0xE0)Формат : MPEG VideoВерсия формата : Version 2Профиль формата : Main@MainПараметр BVOP формата : ДаПараметр матрицы формата : ВыборочнаяПараметр GOP формата : M=3, N=15Продолжительность : 20 м.Вид битрейта : ПеременныйБитрейт : 6534 Кбит/секМаксимальный битрейт : 8000 Кбит/секШирина : 720 пикселейВысота : 576 пикселейСоотношение сторон : 4:3Частота кадров : 25,000 кадров/секСтандарт вещания : PALЦветовое пространство : YUVСубдискретизация насыщенности : 4:2:0Битовая глубина : 8 битТип развёртки : ЧересстрочнаяПорядок развёртки : Верхнее поле первоеМетод сжатия : С потерямиБит/(Пиксели*Кадры) : 0.630Временной код первого кадра : 00:20:46:16Оригинал временного кода : Group of pictures headerРазмер потока : 970 Мбайт (95%)Основные цвета : BT.601 NTSCХарактеристики трансфера : BT.601Коэффициенты матрицы : BT.601
АудиоИдентификатор : 189 (0xBD)-128 (0x80)Формат : AC-3Формат/Информация : Audio Coding 3Расширение режима : CM (complete main)Параметр Endianness формата : BigРежим смешивания : DVD-VideoПродолжительность : 20 м.Вид битрейта : ПостоянныйБитрейт : 224 Кбит/секКаналы : 2 каналаРасположение каналов : Front: L RЧастота : 48,0 КГцБитовая глубина : 16 битМетод сжатия : С потерямиЗадержка видео : -384 мс.Размер потока : 33,3 Мбайт (3%)
Меню
ОбщееПолное имя : E:\Svinarka_i_pastuh_1941_DVD5_[torrentfilm.net]\VIDEO_TS\VTS_01_3.VOBФормат : MPEG-PSРазмер файла : 1024 МбайтПродолжительность : 20 м.Режим общего битрейта : ПеременныйОбщий поток : 6893 Кбит/сек
ВидеоИдентификатор : 224 (0xE0)Формат : MPEG VideoВерсия формата : Version 2Профиль формата : Main@MainПараметр BVOP формата : ДаПараметр матрицы формата : ВыборочнаяПараметр GOP формата : M=3, N=15Продолжительность : 20 м.Вид битрейта : ПеременныйБитрейт : 6532 Кбит/секМаксимальный битрейт : 8000 Кбит/секШирина : 720 пикселейВысота : 576 пикселейСоотношение сторон : 4:3Частота кадров : 25,000 кадров/секСтандарт вещания : PALЦветовое пространство : YUVСубдискретизация насыщенности : 4:2:0Битовая глубина : 8 битТип развёртки : ЧересстрочнаяПорядок развёртки : Верхнее поле первоеМетод сжатия : С потерямиБит/(Пиксели*Кадры) : 0.630Временной код первого кадра : 00:41:32:18Оригинал временного кода : Group of pictures headerРазмер потока : 970 Мбайт (95%)Основные цвета : BT.601 NTSCХарактеристики трансфера : BT.601Коэффициенты матрицы : BT.601
АудиоИдентификатор : 189 (0xBD)-128 (0x80)Формат : AC-3Формат/Информация : Audio Coding 3Расширение режима : CM (complete main)Параметр Endianness формата : BigРежим смешивания : DVD-VideoПродолжительность : 20 м.Вид битрейта : ПостоянныйБитрейт : 224 Кбит/секКаналы : 2 каналаРасположение каналов : Front: L RЧастота : 48,0 КГцБитовая глубина : 16 битМетод сжатия : С потерямиЗадержка видео : -736 мс.Размер потока : 33,3 Мбайт (3%)
Меню
ОбщееПолное имя : E:\Svinarka_i_pastuh_1941_DVD5_[torrentfilm.net]\VIDEO_TS\VTS_01_4.VOBФормат : MPEG-PSРазмер файла : 1009 МбайтПродолжительность : 20 м.Режим общего битрейта : ПеременныйОбщий поток : 6865 Кбит/сек
ВидеоИдентификатор : 224 (0xE0)Формат : MPEG VideoВерсия формата : Version 2Профиль формата : Main@MainПараметр BVOP формата : ДаПараметр матрицы формата : ВыборочнаяПараметр GOP формата : M=3, N=15Продолжительность : 20 м.Вид битрейта : ПеременныйБитрейт : 6505 Кбит/секМаксимальный битрейт : 8000 Кбит/секШирина : 720 пикселейВысота : 576 пикселейСоотношение сторон : 4:3Частота кадров : 25,000 кадров/секСтандарт вещания : PALЦветовое пространство : YUVСубдискретизация насыщенности : 4:2:0Битовая глубина : 8 битТип развёртки : ЧересстрочнаяПорядок развёртки : Верхнее поле первоеМетод сжатия : С потерямиБит/(Пиксели*Кадры) : 0.627Временной код первого кадра : 01:02:18:13Оригинал временного кода : Group of pictures headerРазмер потока : 956 Мбайт (95%)Основные цвета : BT.601 NTSCХарактеристики трансфера : BT.601Коэффициенты матрицы : BT.601
АудиоИдентификатор : 189 (0xBD)-128 (0x80)Формат : AC-3Формат/Информация : Audio Coding 3Расширение режима : CM (complete main)Параметр Endianness формата : BigРежим смешивания : DVD-VideoПродолжительность : 20 м.Вид битрейта : ПостоянныйБитрейт : 224 Кбит/секКаналы : 2 каналаРасположение каналов : Front: L RЧастота : 48,0 КГцБитовая глубина : 16 битМетод сжатия : С потерямиЗадержка видео : -224 мс.Размер потока : 32,9 Мбайт (3%)
Меню

Скриншоты

Скриншоты меню

Дополнительная информация

Дополнительная информация

Раздача: По возможности!!!
[Профиль] [ЛС]

Создавать темы 06-Авг-2015 23:37 (спустя 28 дней)

Топик был перенесен из форума Фильмы (HD DVD, Blu-ray и BDRemux) в форум Фильмы (DVD 5/9)
sergej644
 
Кто просматривает тему:

Показать сообщения:    

Текущее время: Сегодня 04:45

Часовой пояс: GMT



Вы не можете начинать темы
Вы не можете отвечать на сообщения
Вы не можете редактировать свои сообщения
Вы не можете удалять свои сообщения
Вы не можете голосовать в опросах
Вы не можете прикреплять файлы к сообщениям
Вы не можете скачивать файлы