Свидание с войной [01-04 из 04] (2016) HDTVRip от New-Team

 
Автор Сообщение

достали все ®

Пол:

Стаж: 1 год 8 месяцев

Сообщений: 6554



Награды: 12 (Подробнее)

Mega Seeder 2 (Количество: 1) Mega Seeder 4 (Количество: 1) За внесенный вклад в развитие сайта (Количество: 1)
Торрент-статистика

Создавать темы 07-Май-2016 12:21

[Цитировать]

Страна: Россия
Производство: CTC Media
Жанр: военный, история
Год выпуска: 2016
Продолжительность: 03:02:08 (00:48:20 + 00:47:32 + 00:40:12 + 00:46:06)
Перевод: не требуется
Субтитры: нет
Оригинальная аудиодорожка: русский
Режиссер: Никита Лойк, Константин Райх
В ролях:
Светлана Глазырина, Снежана Прудько, Инна Егорова, Мария Синяева, Антон Гуляев, Павел Гончаров, Леонид Паршин...
Описание:
Во время Великой Отечественной войны не было значения, кто держит автомат в руках, мужчина или женщина. По сути, за освобождение Родины сражались все советские люди, в том числе и дети. Женщины в фильме "Свидание с войной" научились ненавидеть и убивать своих врагов, но жизнь даже в военное время была тесно связана с бытовыми проблемами. Девушки выходили замуж, рожали детей. И все это происходило под залп орудия. На свидания они бегали в окопы, а вместо дорогого подарка была банка тушенки. Конечно, хрупкие дамы на фронте смотрелись нелепо в тяжелых сапогах. Но они сражались за любовь к Родине, за будущее своих детей.- -Исходник: HDTVRip 720p
Качество: HDTVRip
Формат: AVI
Видео: 720x400 (16:9), 25 fps, XviD ~ 1493 kbps avg, 0.216 bit/pixel
Аудио: 48 kHz, Dolby Digital AC3 2.0, 192 kbps
Раздача от:

Серии


01. Сестрички
02. Любовь в оккупации
03. Спасайся кто может
04. Они тоже сражались за родину

MediaInfo

Общее
Полное имя : Svidanie.s.voynoy.2016.HDTVRip_[New-team]_by_AVP_Studio.avi
Формат : AVI
Формат/Информация : Audio Video Interleave
Размер файла : 586 Мбайт
Продолжительность : 48 м.
Общий поток : 1695 Кбит/сек
Программа кодирования : VirtualDubMod 1.5.10.3 | www.virtualdub-fr.org || (build 2550/release)
Библиотека кодирования : VirtualDubMod build 2550/release
Видео
Идентификатор : 0
Формат : MPEG-4 Visual
Профиль формата : Advanced Simple@L5
Параметр BVOP формата : 1
Параметр QPel формата : Нет
Параметр GMC формата : Без точки перехода
Параметр матрицы формата : Выборочная
Идентификатор кодека : XVID
Идентификатор кодека/Подсказка : XviD
Продолжительность : 48 м.
Битрейт : 1493 Кбит/сек
Ширина : 720 пикселей
Высота : 400 пикселей
Соотношение сторон : 16:9
Частота кадров : 24,000 кадра/сек
Цветовое пространство : YUV
Субдискретизация насыщенности : 4:2:0
Битовая глубина : 8 бит
Тип развёртки : Прогрессивная
Метод сжатия : С потерями
Бит/(Пиксели*Кадры) : 0.216
Размер потока : 516 Мбайт (88%)
Библиотека кодирования : XviD 1.2.1 (UTC 2008-12-04)
Аудио
Идентификатор : 1
Формат : AC-3
Формат/Информация : Audio Coding 3
Расширение режима : CM (complete main)
Параметр Endianness формата : Big
Идентификатор кодека : 2000
Продолжительность : 48 м.
Вид битрейта : Постоянный
Битрейт : 192 Кбит/сек
Каналы : 2 канала
Расположение каналов : Front: L R
Частота : 48,0 КГц
Частота кадров : 31,250 кадров/сек (1536 spf)
Метод сжатия : С потерями
Размер потока : 66,4 Мбайт (11%)
Выравнивание : Разделение по промежуткам
Продолжительность промежутка : 42 мс. (1,00 видеокадр)
Время предзагрузки промежутка : 500 мс

Скриншоты

[Профиль] [ЛС]
Показать сообщения:    

Текущее время: Сегодня 08:46

Часовой пояс: GMT



Вы не можете начинать темы
Вы не можете отвечать на сообщения
Вы не можете редактировать свои сообщения
Вы не можете удалять свои сообщения
Вы не можете голосовать в опросах
Вы не можете прикреплять файлы к сообщениям
Вы не можете скачивать файлы