Светская жизнь / Café Society (2016) BDRip 720p | iTunes

 
Автор Сообщение

достали все ®

Пол:

Стаж: 1 год 8 месяцев

Сообщений: 6600



Награды: 12 (Подробнее)

Mega Seeder 4 (Количество: 1) Mega Seeder 1 (Количество: 1) Mega Seeder 5 (Количество: 1)
Торрент-статистика

Создавать темы 17-Окт-2016 21:48

[Цитировать]

Информация о фильме
Название: Светская жизнь
Оригинальное название: Café Society
Год выхода: 2016
Жанр: Драма, мелодрама, комедия
Режиссер: Вуди Аллен
В ролях: Дженни Берлин, Стив Карелл, Джесси Айзенберг, Кристен Стюарт, Блэйк Лайвли, Паркер Поузи, Кори Столл, Кен Стотт, Анна Кэмп, Пол Шнайдер
О фильме:
Вуди Аллен! Нестареющий и уверенный в себе режиссёр, дарящий нам комфорт для души и шампанское для радости. Кто сегодня так нежно, мило, иронично, сексуально и с невесомым шлейфом грусти преподнесёт нам блеск и красоту жизни, беззаботность и буйство молодости, роскошь и глянец зрелости с его непринуждённой манерой и изысканностью стиля. Наслаждаешься каждым кадром, смакуешь диалоги и торопишься на седьмое небо в счастии видеть жизнь его глазами и с, присущим ему, оптимистическим сарказмом: "Жизнь - это комедия, написанная, однако, писателем -садистом".

Страна: США
Студия: FilmNation Entertainment, Gravier Productions, Perdido Productions
Продолжительность: 01:35:55
Перевод: Дублированный | iTunes
Файл
Кодек: MPEG-4
Качество: BDRip 720p
Видео: 1280x640, 6284 Кbit/s, 23.976 fps
Звук:
Аудио #01: 48 kHz, AC3, 5.1, 384 Kbps | Дублированный | iTunes |
Аудио #02: 48 kHz, AC3, 5.1, 640 kbps | Оригинал |
Субтитры: Английские

MI

General
Unique ID : 235505715059690831201799189263731482150 (0xB12CC039113DDB36A70FD0F2EDE95E26)
Complete name : H:VideoCafe.Society.2016.BDRip.720p.ExKinoRay.mkv
Format : Matroska
Format version : Version 4 / Version 2
File size : 4.91 GiB
Duration : 1 h 36 min
Overall bit rate : 7 310 kb/s
Movie name : ***селезень***
Encoded date : UTC 2016-10-17 20:37:46
Writing application : mkvmerge v8.3.0 ('Over the Horizon') 64bit
Writing library : libebml v1.3.1 + libmatroska v1.4.2
Video
ID : 1
Format : AVC
Format/Info : Advanced Video Codec
Format profile : High@L4.1
Format settings, CABAC : Yes
Format settings, ReFrames : 10 frames
Codec ID : V_MPEG4/ISO/AVC
Duration : 1 h 36 min
Bit rate : 6 284 kb/s
Width : 1 280 pixels
Height : 640 pixels
Display aspect ratio : 2.000
Frame rate mode : Constant
Frame rate : 23.976 (24000/1001) FPS
Color space : YUV
Chroma subsampling : 4:2:0
Bit depth : 8 bits
Scan type : Progressive
Bits/(Pixel*Frame) : 0.320
Stream size : 4.22 GiB (86%)
Title : ***селезень***
Writing library : x264 core 146 r2538 121396c
Encoding settings : cabac=1 / ref=10 / deblock=1:-3:-3 / analyse=0x3:0x133 / me=umh / subme=10 / psy=1 / psy_rd=1.00:0.00 / mixed_ref=1 / me_range=32 / chroma_me=1 / trellis=2 / 8x8dct=1 / cqm=0 / deadzone=21,11 / fast_pskip=0 / chroma_qp_offset=-2 / threads=6 / lookahead_threads=1 / sliced_threads=0 / nr=0 / decimate=0 / interlaced=0 / bluray_compat=0 / constrained_intra=0 / bframes=8 / b_pyramid=2 / b_adapt=2 / b_bias=0 / direct=3 / weightb=1 / open_gop=0 / weightp=2 / keyint=250 / keyint_min=24 / scenecut=40 / intra_refresh=0 / rc=crf / mbtree=0 / crf=15.0 / qcomp=0.60 / qpmin=0 / qpmax=69 / qpstep=4 / ip_ratio=1.35 / pb_ratio=1.25 / aq=3:0.80
Language : English
Default : Yes
Forced : No
Audio #1
ID : 2
Format : AC-3
Format/Info : Audio Coding 3
Mode extension : CM (complete main)
Format settings, Endianness : Big
Codec ID : A_AC3
Duration : 1 h 36 min
Bit rate mode : Constant
Bit rate : 384 kb/s
Channel(s) : 6 channels
Channel positions : Front: L C R, Side: L R, LFE
Sampling rate : 48.0 kHz
Frame rate : 31.250 FPS (1536 spf)
Compression mode : Lossy
Stream size : 264 MiB (5%)
Title : iTunes
Language : Russian
Default : Yes
Forced : No
Audio #2
ID : 3
Format : AC-3
Format/Info : Audio Coding 3
Mode extension : CM (complete main)
Format settings, Endianness : Big
Codec ID : A_AC3
Duration : 1 h 36 min
Bit rate mode : Constant
Bit rate : 640 kb/s
Channel(s) : 6 channels
Channel positions : Front: L C R, Side: L R, LFE
Sampling rate : 48.0 kHz
Frame rate : 31.250 FPS (1536 spf)
Compression mode : Lossy
Stream size : 440 MiB (9%)
Title : Original
Language : English
Default : No
Forced : No
Text
ID : 4
Format : UTF-8
Codec ID : S_TEXT/UTF8
Codec ID/Info : UTF-8 Plain Text
Duration : 1 h 29 min
Bit rate : 102 b/s
Count of elements : 1731
Stream size : 67.3 KiB (0%)
Title : Full
Language : English
Default : No
Forced : No
Menu
00:00:00.000 : en:Chapter 01
00:08:35.765 : en:Chapter 02
00:16:39.790 : en:Chapter 03
00:26:28.461 : en:Chapter 04
00:32:30.990 : en:Chapter 05
00:43:12.381 : en:Chapter 06
00:54:03.740 : en:Chapter 07
01:02:38.629 : en:Chapter 08
01:10:05.618 : en:Chapter 09
01:14:40.767 : en:Chapter 10
01:20:45.924 : en:Chapter 11
01:31:57.178 : en:Chapter 12

Автор релиза:
[Профиль] [ЛС]
Показать сообщения:    

Текущее время: Сегодня 17:41

Часовой пояс: GMT



Вы не можете начинать темы
Вы не можете отвечать на сообщения
Вы не можете редактировать свои сообщения
Вы не можете удалять свои сообщения
Вы не можете голосовать в опросах
Вы не можете прикреплять файлы к сообщениям
Вы не можете скачивать файлы