Светофор [S08] (2016) WEB-DLRip

 
Автор Сообщение

достали все ®

Пол:

Стаж: 1 год 8 месяцев

Сообщений: 6545



Награды: 12 (Подробнее)

Mega Seeder 3 (Количество: 1) Top Releaser 4 (Количество: 1) Top Releaser 3 (Количество: 1)
Торрент-статистика

Создавать темы 17-Мар-2016 22:58

[Цитировать]

Информация о фильме
Название: Светофор
Год выхода: 2016
Жанр: Ситком, комедия, ремейк
Режиссёр: Роман Фокин
В ролях: Ольга Медынич, Джемал Тетруашвили, Дмитрий Миллер, Александр Макогон, Ирина Низина, Сергей Лобынцев, Александр Никольский, Евгения Каверау, Антонина Комиссарова
О фильме: Сериал о трех друзьях возвращается на СТС... Герои не изменили старым привычкам: энергичный Эдик (Дмитрий Миллер) больше всего в жизни ценит свободные отношения, тихоня Паша (Джемал Тетруашвили) одержим карьерой и женой Олесей, а флегматик Сева (Александр Макогон) дорожит семейным покоем и благополучием. Они по-прежнему очень разные – и все же они вместе, потому что нет ничего прочнее мужской дружбы.

Выпущено: Россия, СТС, Yellow, Black & White
Продолжительность: ~ 00:24:00 / Серия
Перевод: Не требуется
Файл
Качество: WEB-DLRip
Видео: XviD, 704x400 (16:9), ~ 1800 Кбит/с, 25 кадр/с, 0.263 bit/pixel
Аудио: Русский, MP3, 48000 Гц, 160 Кбит/с, 2 канала (Стерео)

MediaInfo

General
Complete name : Svetofor.s08.e02.WEB-DLRip.avi
Format : AVI
Format/Info : Audio Video Interleave
File size : 350 MiB
Duration : 24mn 12s
Overall bit rate : 2 023 Kbps
Writing application : VirtualDubMod 1.5.10.3 | www.virtualdub-fr.org || (build 2550/release)
Writing library : VirtualDubMod build 2550/release
Copyright : rip by ivandubskoj
Video
ID : 0
Format : MPEG-4 Visual
Format profile : Advanced Simple@L5
Format settings, BVOP : 1
Format settings, QPel : No
Format settings, GMC : No warppoints
Format settings, Matrix : Custom
Codec ID : XVID
Codec ID/Hint : XviD
Duration : 24mn 12s
Bit rate : 1 853 Kbps
Width : 704 pixels
Height : 400 pixels
Display aspect ratio : 16:9
Frame rate : 25.000 fps
Color space : YUV
Chroma subsampling : 4:2:0
Bit depth : 8 bits
Scan type : Progressive
Compression mode : Lossy
Bits/(Pixel*Frame) : 0.263
Stream size : 321 MiB (92%)
Writing library : XviD 73
Audio
ID : 1
Format : MPEG Audio
Format version : Version 1
Format profile : Layer 3
Codec ID : 55
Codec ID/Hint : MP3
Duration : 24mn 12s
Bit rate mode : Constant
Bit rate : 160 Kbps
Channel(s) : 2 channels
Sampling rate : 48.0 KHz
Compression mode : Lossy
Stream size : 27.7 MiB (8%)
Alignment : Aligned on interleaves
Interleave, duration : 40 ms (1.00 video frame)
Interleave, preload duration : 504 ms
Writing library : LAME3.99r
Encoding settings : -m s -V 4 -q 0 -lowpass 17.5 -b 160

Скриншоты



Автор рипа - ivandubskoj
[Профиль] [ЛС]
Показать сообщения:    

Текущее время: Сегодня 22:39

Часовой пояс: GMT



Вы не можете начинать темы
Вы не можете отвечать на сообщения
Вы не можете редактировать свои сообщения
Вы не можете удалять свои сообщения
Вы не можете голосовать в опросах
Вы не можете прикреплять файлы к сообщениям
Вы не можете скачивать файлы