Светофор / (сезон 2, серии 1-20) (2011) [3GP|320x176] IPTVRip

 
Автор Сообщение

sergej644 ®

Пол:

Стаж: 4 года 11 месяцев

Сообщений: 6038

Откуда: Soviet Union



Награды: Нет

Торрент-статистика

Создавать темы 07-Ноя-2014 22:53

[Цитировать]

-Светофор / (сезон 2, серии 1-20) (2011) IPTVRip
«Мужчины бывают трёх типов. Про этих трёх типов мы вам и расскажем»
- Год выпуска: 2011
Жанр: Комедия
Описание фильма:
«Светофор» — история о трех друзьях детства. Им слегка за 30. Они мужчины в самом расцвете сил. Один женат, другой занят, третий свободен, как ветер. Герои абсолютно не похожи, но их объединяют дружба и разная, но все же искренняя любовь к женщинам.
Режиссер: Роман Фокин
Актеры: Дмитрий Миллер, Александр Макогон, Джемал Тетруашвили, Ирина Низина, Ольга Медынич, Евгения Каверау, Екатерина Архарова, Александр Никольский, Сергей Лобынцев, Татьяна Клюкина и др.
Продолжительность: ~ 00:24:00 серия
Качество видео: IPTVRip

Формат: 3GP
Видеокодек: MPEG-4 AVC/H.264
Битрейт видео: ~350 Kbps
Размер кадра: 320x176
Аудиокодек: AAC, 2.0
Битрейт аудио: 128 Kbps

MediaInfo

MediaInfoLib - v0.7.62
General
Complete name                       : F:\Torrents\320_Svetofor\Svetofor.s02.e02.2011.3gp
Format                              : MPEG-4
Format profile                      : 3GPP Media Release 6 Basic
Codec ID                            : 3gp6
File size                           : 83.4 MiB
Duration                            : 24mn 15s
Overall bit rate mode               : Variable
Overall bit rate                    : 480 Kbps
Encoded date                        : UTC 2014-11-06 09:54:52
Tagged date                         : UTC 2014-11-06 09:54:52
Video
ID                                  : 1
Format                              : AVC
Format/Info                         : Advanced Video Codec
Format profile                      : [url=mailto:Baseline@L1.3]Baseline@L1.3[/url]
Format settings, CABAC              : No
Format settings, ReFrames           : 6 frames
Codec ID                            : avc1
Codec ID/Info                       : Advanced Video Coding
Duration                            : 24mn 15s
Bit rate                            : 350 Kbps
Maximum bit rate                    : 819 Kbps
Width                               : 320 pixels
Height                              : 176 pixels
Display aspect ratio                : 16:9
Frame rate mode                     : Constant
Frame rate                          : 25.000 fps
Color space                         : YUV
Chroma subsampling                  : 4:2:0
Bit depth                           : 8 bits
Scan type                           : Progressive
Bits/(Pixel*Frame)                  : 0.249
Stream size                         : 60.7 MiB (73%)
Writing library                     : x264 core 130 r2273 b3065e6
Encoding settings                   : cabac=0 / ref=6 / deblock=1:-2:-1 / analyse=0x1:0x131 / me=umh / subme=6 / psy=1 / psy_rd=1.00:0.00 / mixed_ref=1 / me_range=16 / chroma_me=1 / trellis=0 / 8x8dct=0 / cqm=0 / deadzone=21,11 / fast_pskip=1 / chroma_qp_offset=-2 / threads=3 / lookahead_threads=1 / sliced_threads=0 / nr=0 / decimate=1 / interlaced=0 / bluray_compat=0 / constrained_intra=0 / bframes=0 / weightp=0 / keyint=250 / keyint_min=25 / scenecut=40 / intra_refresh=0 / rc_lookahead=40 / rc=2pass / mbtree=1 / bitrate=350 / ratetol=1.0 / qcomp=0.60 / qpmin=0 / qpmax=69 / qpstep=4 / cplxblur=20.0 / qblur=0.5 / ip_ratio=1.40 / aq=1:1.00
Encoded date                        : UTC 2014-11-06 09:54:52
Tagged date                         : UTC 2014-11-06 09:54:54
Audio
ID                                  : 2
Format                              : AAC
Format/Info                         : Advanced Audio Codec
Format profile                      : LC
Codec ID                            : 40
Duration                            : 24mn 15s
Bit rate mode                       : Variable
Bit rate                            : 128 Kbps
Maximum bit rate                    : 141 Kbps
Channel(s)                          : 2 channels
Channel positions                   : Front: L R
Sampling rate                       : 48.0 KHz
Compression mode                    : Lossy
Stream size                         : 22.2 MiB (27%)
Encoded date                        : UTC 2014-11-06 09:54:53
Tagged date                         : UTC 2014-11-06 09:54:54

Скриншоты

--
[Профиль] [ЛС]
Показать сообщения:    

Текущее время: Сегодня 22:08

Часовой пояс: GMT



Вы не можете начинать темы
Вы не можете отвечать на сообщения
Вы не можете редактировать свои сообщения
Вы не можете удалять свои сообщения
Вы не можете голосовать в опросах
Вы не можете прикреплять файлы к сообщениям
Вы не можете скачивать файлы