Светлой памяти павших в борьбе против фашизма. Минута молчания [2015, Общенациональный ритуал, HDTV 1080i]

 
Автор Сообщение

TorrentFilm ®

Пол:

Стаж: 2 года 6 месяцев

Сообщений: 7773



Награды: Нет

Торрент-статистика

Создавать темы 11-Май-2015 00:04

[Цитировать]

Светлой памяти павших в борьбе против фашизма. Минута молчания
Год выпуска: 2015
Страна: Россия
Студия: ВГТРК, Первый канал
Жанр: Общенациональный ритуал
Продолжительность: 00:05:48
Перевод: Не требуется
Русские субтитры: нет
Описание: Общенациональная Минута молчания 9 Мая — одна из тех традиций, которые, кажется, были всегда: в 2015 году ей исполнится 50 лет. Она пережила смену нескольких поколений, распад государства, почти десять лет назад продолжительность синхронного теле- и радиовещания сократилась в два с половиной раза… Однако Минута молчания жива — и будет жива, пока живёт в наших согражданах память о Великой Отечественной войне.
Источник: собственный рип
Доп. информация: Релиз -

Рип чистый. Без посторонних надписей. Выкладывается как есть.
Качество: HDTV 1080i
Контейнер: TS
Видео кодек: AVC
Аудио кодек: MP2, AC3
Видео: 1920x1080 (16:9) 25.000 fps ~ 12.2 Mbpss, 0.235 bit/pixel
Аудио 1: MPEG Audio 48000Hz stereo 192 Кбит/сек
Аудио 2: AC3, 6 channels, 48000Hz, 384 Кбит/сек

Скриншоты


MI

GeneralID : 1 (0x1)Complete name : J:\Победа\Светлой памяти павших в борьбе против фашизма. Минута молчания (2015, Общенациональный ритуал, HDTV 1080i) (Первый HD).tsFormat : MPEG-TSFile size : 400 MiBDuration : 5mn 48sOverall bit rate mode : VariableOverall bit rate : 9 611 Kbps
VideoID : 1603 (0x643)Menu ID : 603 (0x25B)Format : AVCFormat/Info : Advanced Video CodecFormat profile : High@L4.0Format settings, CABAC : YesFormat settings, ReFrames : 3 framesCodec ID : 27Duration : 5mn 48sBit rate : 8 554 KbpsWidth : 1 920 pixelsHeight : 1 080 pixelsDisplay aspect ratio : 16:9Frame rate : 25.000 fpsStandard : ComponentColor space : YUVChroma subsampling : 4:2:0Bit depth : 8 bitsScan type : InterlacedScan order : Top Field FirstBits/(Pixel*Frame) : 0.165Stream size : 356 MiB (89%)Color primaries : BT.709Transfer characteristics : BT.709Matrix coefficients : BT.709
Audio #1ID : 2603 (0xA2B)Menu ID : 603 (0x25B)Format : AC-3Format/Info : Audio Coding 3Mode extension : CM (complete main)Format settings, Endianness : BigCodec ID : 6Duration : 5mn 48sBit rate mode : ConstantBit rate : 384 KbpsChannel(s) : 6 channelsChannel positions : Front: L C R, Side: L R, LFESampling rate : 48.0 KHzBit depth : 16 bitsCompression mode : LossyDelay relative to video : -40msStream size : 16.0 MiB (4%)Language : Russian
Audio #2ID : 2604 (0xA2C)Menu ID : 603 (0x25B)Format : MPEG AudioFormat version : Version 1Format profile : Layer 2Codec ID : 3Duration : 5mn 48sBit rate mode : ConstantBit rate : 192 KbpsChannel(s) : 2 channelsSampling rate : 48.0 KHzCompression mode : LossyDelay relative to video : -40msStream size : 7.98 MiB (2%)Language : Russian
[Профиль] [ЛС]
Кто просматривает тему:

Форум Тема Автор Размер
Pop (Pop) Светлана Лобода (LOBODA) - 40 Градусов - 2015, MP3, 320 kbps достали все 145 MB
Показать сообщения:    

Текущее время: Сегодня 12:49

Часовой пояс: GMT



Вы не можете начинать темы
Вы не можете отвечать на сообщения
Вы не можете редактировать свои сообщения
Вы не можете удалять свои сообщения
Вы не можете голосовать в опросах
Вы не можете прикреплять файлы к сообщениям
Вы не можете скачивать файлы